<?xml version="1.0" standalone="no"?>
<!DOCTYPE svg PUBLIC "-//W3C//DTD SVG 1.1//EN" "http://www.w3.org/Graphics/SVG/1.1/DTD/svg11.dtd" >
<svg xmlns="http://www.w3.org/2000/svg" xmlns:xlink="http://www.w3.org/1999/xlink" version="1.1">
<metadata></metadata>
<defs>
<font id="open_sansbold" horiz-adv-x="1169" >
<font-face units-per-em="2048" ascent="1638" descent="-410" />
<missing-glyph horiz-adv-x="532" />
<glyph unicode="ff" horiz-adv-x="1585" d="M778 889h-264v-889h-305v889h-168v147l168 82v82q0 191 94 279t301 88q158 0 281 -47l-78 -224q-92 29 -170 29q-65 0 -94 -38.5t-29 -98.5v-70h264v-229zM1571 889h-264v-889h-305v889h-168v147l168 82v82q0 191 94 279t301 88q158 0 281 -47l-78 -224q-92 29 -170 29 q-65 0 -94 -38.5t-29 -98.5v-70h264v-229z" />
<glyph unicode="&#xfb01;" horiz-adv-x="1417" d="M778 889h-264v-889h-305v889h-168v147l168 82v82q0 191 94 279t301 88q158 0 281 -47l-78 -224q-92 29 -170 29q-65 0 -94 -38.5t-29 -98.5v-70h264v-229zM940 1407q0 149 166 149t166 -149q0 -71 -41.5 -110.5t-124.5 -39.5q-166 0 -166 150zM1258 0h-305v1118h305 v-1118z" />
<glyph unicode="&#xfb02;" horiz-adv-x="1417" d="M778 889h-264v-889h-305v889h-168v147l168 82v82q0 191 94 279t301 88q158 0 281 -47l-78 -224q-92 29 -170 29q-65 0 -94 -38.5t-29 -98.5v-70h264v-229zM1258 0h-305v1556h305v-1556z" />
<glyph unicode="&#xfb03;" horiz-adv-x="2208" d="M778 889h-264v-889h-305v889h-168v147l168 82v82q0 191 94 279t301 88q158 0 281 -47l-78 -224q-92 29 -170 29q-65 0 -94 -38.5t-29 -98.5v-70h264v-229zM1571 889h-264v-889h-305v889h-168v147l168 82v82q0 191 94 279t301 88q158 0 281 -47l-78 -224q-92 29 -170 29 q-65 0 -94 -38.5t-29 -98.5v-70h264v-229zM1730 1407q0 149 166 149t166 -149q0 -71 -41.5 -110.5t-124.5 -39.5q-166 0 -166 150zM2048 0h-305v1118h305v-1118z" />
<glyph unicode="&#xfb04;" horiz-adv-x="2208" d="M778 889h-264v-889h-305v889h-168v147l168 82v82q0 191 94 279t301 88q158 0 281 -47l-78 -224q-92 29 -170 29q-65 0 -94 -38.5t-29 -98.5v-70h264v-229zM1571 889h-264v-889h-305v889h-168v147l168 82v82q0 191 94 279t301 88q158 0 281 -47l-78 -224q-92 29 -170 29 q-65 0 -94 -38.5t-29 -98.5v-70h264v-229zM2048 0h-305v1556h305v-1556z" />
<glyph unicode="&#xd;" horiz-adv-x="1044" />
<glyph unicode=" "  horiz-adv-x="532" />
<glyph unicode="&#x09;" horiz-adv-x="532" />
<glyph unicode="&#xa0;" horiz-adv-x="532" />
<glyph unicode="!" horiz-adv-x="586" d="M416 485h-244l-51 977h346zM117 143q0 84 45 127t131 43q83 0 128.5 -44t45.5 -126q0 -79 -46 -124.5t-128 -45.5q-84 0 -130 44.5t-46 125.5z" />
<glyph unicode="&#x22;" horiz-adv-x="967" d="M412 1462l-41 -528h-197l-41 528h279zM834 1462l-41 -528h-197l-41 528h279z" />
<glyph unicode="#" horiz-adv-x="1323" d="M999 844l-47 -232h258v-206h-297l-77 -406h-220l78 406h-194l-76 -406h-215l74 406h-238v206h277l47 232h-252v209h289l77 407h219l-77 -407h198l78 407h215l-78 -407h240v-209h-279zM539 612h196l47 232h-196z" />
<glyph unicode="$" d="M1092 457q0 -159 -115 -255.5t-322 -115.5v-205h-137v201q-244 5 -428 86v264q87 -43 209.5 -76t218.5 -39v310l-67 26q-198 78 -280.5 169.5t-82.5 226.5q0 145 113.5 238.5t316.5 113.5v153h137v-149q229 -10 414 -92l-94 -234q-156 64 -320 78v-295 q195 -75 277.5 -130t121 -121t38.5 -154zM791 442q0 42 -34 71t-102 60v-249q136 23 136 118zM389 1049q0 -44 30.5 -72.5t98.5 -58.5v235q-129 -19 -129 -104z" />
<glyph unicode="%" horiz-adv-x="1845" d="M315 1024q0 -127 22.5 -189.5t72.5 -62.5q96 0 96 252q0 250 -96 250q-50 0 -72.5 -61.5t-22.5 -188.5zM758 1026q0 -230 -89 -345.5t-261 -115.5q-165 0 -255 118.5t-90 342.5q0 457 345 457q169 0 259.5 -118.5t90.5 -338.5zM1446 1462l-811 -1462h-240l811 1462h240z M1339 440q0 -127 22.5 -189.5t72.5 -62.5q96 0 96 252q0 250 -96 250q-50 0 -72.5 -61.5t-22.5 -188.5zM1782 442q0 -229 -89 -344.5t-261 -115.5q-165 0 -255 118.5t-90 341.5q0 457 345 457q169 0 259.5 -118.5t90.5 -338.5z" />
<glyph unicode="&#x26;" horiz-adv-x="1536" d="M1536 0h-377l-115 113q-191 -133 -432 -133q-244 0 -387 112t-143 303q0 137 60.5 233.5t207.5 180.5q-75 86 -109 164.5t-34 171.5q0 152 116.5 245t311.5 93q186 0 297.5 -86.5t111.5 -231.5q0 -119 -69 -217.5t-223 -187.5l284 -277q71 117 123 301h318 q-36 -135 -99 -263.5t-143 -227.5zM403 424q0 -86 64.5 -137t165.5 -51q126 0 227 61l-332 330q-58 -44 -91.5 -92t-33.5 -111zM762 1133q0 53 -36 83.5t-93 30.5q-67 0 -105.5 -32t-38.5 -91q0 -88 95 -194q86 48 132 94.5t46 108.5z" />
<glyph unicode="'" horiz-adv-x="545" d="M412 1462l-41 -528h-197l-41 528h279z" />
<glyph unicode="(" horiz-adv-x="694" d="M82 561q0 265 77.5 496t223.5 405h250q-141 -193 -213 -424t-72 -475q0 -245 73.5 -473.5t209.5 -413.5h-248q-147 170 -224 397t-77 488z" />
<glyph unicode=")" horiz-adv-x="694" d="M612 561q0 -263 -77.5 -490t-223.5 -395h-248q135 184 209 412.5t74 474.5q0 244 -72 475t-213 424h250q147 -175 224 -406.5t77 -494.5z" />
<glyph unicode="*" horiz-adv-x="1116" d="M688 1556l-41 -368l373 104l33 -252l-340 -24l223 -297l-227 -121l-156 313l-137 -311l-236 119l221 297l-338 26l39 250l365 -104l-41 368h262z" />
<glyph unicode="+" d="M475 612h-387v219h387v390h219v-390h387v-219h-387v-385h-219v385z" />
<glyph unicode="," horiz-adv-x="594" d="M459 215q-52 -202 -176 -479h-220q65 266 101 502h280z" />
<glyph unicode="-" horiz-adv-x="659" d="M61 424v250h537v-250h-537z" />
<glyph unicode="." horiz-adv-x="584" d="M117 143q0 84 45 127t131 43q83 0 128.5 -44t45.5 -126q0 -79 -46 -124.5t-128 -45.5q-84 0 -130 44.5t-46 125.5z" />
<glyph unicode="/" horiz-adv-x="846" d="M836 1462l-545 -1462h-277l545 1462h277z" />
<glyph unicode="0" d="M1096 731q0 -383 -125.5 -567t-386.5 -184q-253 0 -381.5 190t-128.5 561q0 387 125 570.5t385 183.5q253 0 382.5 -192t129.5 -562zM381 731q0 -269 46.5 -385.5t156.5 -116.5q108 0 156 118t48 384q0 269 -48.5 386.5t-155.5 117.5q-109 0 -156 -117.5t-47 -386.5z" />
<glyph unicode="1" d="M846 0h-309v846l3 139l5 152q-77 -77 -107 -101l-168 -135l-149 186l471 375h254v-1462z" />
<glyph unicode="2" d="M1104 0h-1022v215l367 371q163 167 213 231.5t72 119.5t22 114q0 88 -48.5 131t-129.5 43q-85 0 -165 -39t-167 -111l-168 199q108 92 179 130t155 58.5t188 20.5q137 0 242 -50t163 -140t58 -206q0 -101 -35.5 -189.5t-110 -181.5t-262.5 -265l-188 -177v-14h637v-260z " />
<glyph unicode="3" d="M1047 1135q0 -137 -83 -233t-233 -132v-6q177 -22 268 -107.5t91 -230.5q0 -211 -153 -328.5t-437 -117.5q-238 0 -422 79v263q85 -43 187 -70t202 -27q153 0 226 52t73 167q0 103 -84 146t-268 43h-111v237h113q170 0 248.5 44.5t78.5 152.5q0 166 -208 166 q-72 0 -146.5 -24t-165.5 -83l-143 213q200 144 477 144q227 0 358.5 -92t131.5 -256z" />
<glyph unicode="4" d="M1137 303h-176v-303h-302v303h-624v215l641 944h285v-919h176v-240zM659 543v248q0 62 5 180t8 137h-8q-37 -82 -89 -160l-268 -405h352z" />
<glyph unicode="5" d="M614 934q212 0 337.5 -119t125.5 -326q0 -245 -151 -377t-432 -132q-244 0 -394 79v267q79 -42 184 -68.5t199 -26.5q283 0 283 232q0 221 -293 221q-53 0 -117 -10.5t-104 -22.5l-123 66l55 745h793v-262h-522l-27 -287l35 7q61 14 151 14z" />
<glyph unicode="6" d="M72 621q0 434 183.5 646t549.5 212q125 0 196 -15v-247q-89 20 -176 20q-159 0 -259.5 -48t-150.5 -142t-59 -267h13q99 170 317 170q196 0 307 -123t111 -340q0 -234 -132 -370.5t-366 -136.5q-162 0 -282.5 75t-186 219t-65.5 347zM600 227q99 0 152 66.5t53 189.5 q0 107 -49.5 168.5t-149.5 61.5q-94 0 -160.5 -61t-66.5 -142q0 -119 62.5 -201t158.5 -82z" />
<glyph unicode="7" d="M227 0l549 1200h-721v260h1049v-194l-553 -1266h-324z" />
<glyph unicode="8" d="M586 1481q210 0 338.5 -95.5t128.5 -257.5q0 -112 -62 -199.5t-200 -156.5q164 -88 235.5 -183.5t71.5 -209.5q0 -180 -141 -289.5t-371 -109.5q-240 0 -377 102t-137 289q0 125 66.5 222t213.5 171q-125 79 -180 169t-55 197q0 157 130 254t339 97zM358 389 q0 -86 60 -134t164 -48q115 0 172 49.5t57 130.5q0 67 -56.5 125.5t-183.5 124.5q-213 -98 -213 -248zM584 1255q-79 0 -127.5 -40.5t-48.5 -108.5q0 -60 38.5 -107.5t139.5 -97.5q98 46 137 94t39 111q0 69 -50 109t-128 40z" />
<glyph unicode="9" d="M1098 838q0 -432 -182 -645t-551 -213q-130 0 -197 14v248q84 -21 176 -21q155 0 255 45.5t153 143t61 268.5h-12q-58 -94 -134 -132t-190 -38q-191 0 -301 122.5t-110 340.5q0 235 133.5 371.5t363.5 136.5q162 0 283.5 -76t186.5 -220.5t65 -344.5zM569 1231 q-96 0 -150 -66t-54 -190q0 -106 49 -168t149 -62q94 0 161 61.5t67 141.5q0 119 -62.5 201t-159.5 82z" />
<glyph unicode=":" horiz-adv-x="584" d="M117 143q0 84 45 127t131 43q83 0 128.5 -44t45.5 -126q0 -79 -46 -124.5t-128 -45.5q-84 0 -130 44.5t-46 125.5zM117 969q0 84 45 127t131 43q83 0 128.5 -44t45.5 -126q0 -81 -46.5 -125.5t-127.5 -44.5q-84 0 -130 44t-46 126z" />
<glyph unicode=";" horiz-adv-x="594" d="M444 238l15 -23q-52 -202 -176 -479h-220q65 266 101 502h280zM117 969q0 84 45 127t131 43q83 0 128.5 -44t45.5 -126q0 -81 -46.5 -125.5t-127.5 -44.5q-84 0 -130 44t-46 126z" />
<glyph unicode="&#x3c;" d="M1081 203l-993 438v143l993 496v-240l-684 -317l684 -281v-239z" />
<glyph unicode="=" d="M88 805v219h993v-219h-993zM88 418v219h993v-219h-993z" />
<glyph unicode="&#x3e;" d="M88 442l684 281l-684 317v240l993 -496v-143l-993 -438v239z" />
<glyph unicode="?" horiz-adv-x="977" d="M276 485v74q0 96 41 167t150 151q105 75 138.5 122t33.5 105q0 65 -48 99t-134 34q-150 0 -342 -98l-109 219q223 125 473 125q206 0 327.5 -99t121.5 -264q0 -110 -50 -190t-190 -180q-96 -71 -121.5 -108t-25.5 -97v-60h-265zM244 143q0 84 45 127t131 43 q83 0 128.5 -44t45.5 -126q0 -79 -46 -124.5t-128 -45.5q-84 0 -130 44.5t-46 125.5z" />
<glyph unicode="@" horiz-adv-x="1837" d="M1735 752q0 -144 -46 -263.5t-130 -187.5t-195 -68q-74 0 -131 35.5t-82 93.5h-16q-108 -129 -275 -129q-177 0 -279 106.5t-102 291.5q0 211 134 340t350 129q86 0 189.5 -16.5t170.5 -39.5l-23 -489q0 -139 76 -139q64 0 102 93.5t38 244.5q0 161 -67 284.5 t-188.5 188.5t-277.5 65q-202 0 -351 -83t-228.5 -239.5t-79.5 -361.5q0 -276 147.5 -423.5t427.5 -147.5q106 0 233 23.5t250 68.5v-192q-214 -91 -475 -91q-380 0 -592.5 200t-212.5 556q0 247 108.5 448.5t309 316t461.5 114.5q220 0 393 -90t267 -256t94 -383zM711 627 q0 -211 172 -211q90 0 137 63.5t57 206.5l13 221q-51 11 -115 11q-125 0 -194.5 -78t-69.5 -213z" />
<glyph unicode="A" horiz-adv-x="1413" d="M1079 0l-106 348h-533l-106 -348h-334l516 1468h379l518 -1468h-334zM899 608q-147 473 -165.5 535t-26.5 98q-33 -128 -189 -633h381z" />
<glyph unicode="B" horiz-adv-x="1376" d="M184 1462h455q311 0 451.5 -88.5t140.5 -281.5q0 -131 -61.5 -215t-163.5 -101v-10q139 -31 200.5 -116t61.5 -226q0 -200 -144.5 -312t-392.5 -112h-547v1462zM494 883h180q126 0 182.5 39t56.5 129q0 84 -61.5 120.5t-194.5 36.5h-163v-325zM494 637v-381h202 q128 0 189 49t61 150q0 182 -260 182h-192z" />
<glyph unicode="C" horiz-adv-x="1305" d="M805 1225q-175 0 -271 -131.5t-96 -366.5q0 -489 367 -489q154 0 373 77v-260q-180 -75 -402 -75q-319 0 -488 193.5t-169 555.5q0 228 83 399.5t238.5 263t364.5 91.5q213 0 428 -103l-100 -252q-82 39 -165 68t-163 29z" />
<glyph unicode="D" horiz-adv-x="1516" d="M1397 745q0 -361 -205.5 -553t-593.5 -192h-414v1462h459q358 0 556 -189t198 -528zM1075 737q0 471 -416 471h-165v-952h133q448 0 448 481z" />
<glyph unicode="E" horiz-adv-x="1147" d="M1026 0h-842v1462h842v-254h-532v-321h495v-254h-495v-377h532v-256z" />
<glyph unicode="F" horiz-adv-x="1124" d="M489 0h-305v1462h838v-254h-533v-377h496v-253h-496v-578z" />
<glyph unicode="G" horiz-adv-x="1483" d="M739 821h580v-758q-141 -46 -265.5 -64.5t-254.5 -18.5q-331 0 -505.5 194.5t-174.5 558.5q0 354 202.5 552t561.5 198q225 0 434 -90l-103 -248q-160 80 -333 80q-201 0 -322 -135t-121 -363q0 -238 97.5 -363.5t283.5 -125.5q97 0 197 20v305h-277v258z" />
<glyph unicode="H" horiz-adv-x="1567" d="M1382 0h-309v631h-579v-631h-310v1462h310v-573h579v573h309v-1462z" />
<glyph unicode="I" horiz-adv-x="678" d="M184 0v1462h310v-1462h-310z" />
<glyph unicode="J" horiz-adv-x="678" d="M31 -430q-105 0 -183 22v258q80 -20 146 -20q102 0 146 63.5t44 198.5v1370h310v-1368q0 -256 -117 -390t-346 -134z" />
<glyph unicode="K" horiz-adv-x="1360" d="M1360 0h-352l-383 616l-131 -94v-522h-310v1462h310v-669l122 172l396 497h344l-510 -647z" />
<glyph unicode="L" horiz-adv-x="1157" d="M184 0v1462h310v-1206h593v-256h-903z" />
<glyph unicode="M" horiz-adv-x="1931" d="M803 0l-352 1147h-9q19 -350 19 -467v-680h-277v1462h422l346 -1118h6l367 1118h422v-1462h-289v692q0 49 1.5 113t13.5 340h-9l-377 -1145h-284z" />
<glyph unicode="N" horiz-adv-x="1665" d="M1481 0h-394l-636 1106h-9q19 -293 19 -418v-688h-277v1462h391l635 -1095h7q-15 285 -15 403v692h279v-1462z" />
<glyph unicode="O" horiz-adv-x="1630" d="M1511 733q0 -363 -180 -558t-516 -195t-516 195t-180 560t180.5 557.5t517.5 192.5t515.5 -194t178.5 -558zM444 733q0 -245 93 -369t278 -124q371 0 371 493q0 494 -369 494q-185 0 -279 -124.5t-94 -369.5z" />
<glyph unicode="P" horiz-adv-x="1286" d="M494 774h102q143 0 214 56.5t71 164.5q0 109 -59.5 161t-186.5 52h-141v-434zM1194 1006q0 -236 -147.5 -361t-419.5 -125h-133v-520h-310v1462h467q266 0 404.5 -114.5t138.5 -341.5z" />
<glyph unicode="Q" horiz-adv-x="1630" d="M1511 733q0 -258 -91.5 -432.5t-268.5 -255.5l352 -393h-397l-268 328h-23q-336 0 -516 195t-180 560t180.5 557.5t517.5 192.5t515.5 -194t178.5 -558zM444 733q0 -245 93 -369t278 -124q371 0 371 493q0 494 -369 494q-185 0 -279 -124.5t-94 -369.5z" />
<glyph unicode="R" horiz-adv-x="1352" d="M494 813h100q147 0 217 49t70 154q0 104 -71.5 148t-221.5 44h-94v-395zM494 561v-561h-310v1462h426q298 0 441 -108.5t143 -329.5q0 -129 -71 -229.5t-201 -157.5q330 -493 430 -637h-344l-349 561h-165z" />
<glyph unicode="S" horiz-adv-x="1128" d="M1047 406q0 -198 -142.5 -312t-396.5 -114q-234 0 -414 88v288q148 -66 250.5 -93t187.5 -27q102 0 156.5 39t54.5 116q0 43 -24 76.5t-70.5 64.5t-189.5 99q-134 63 -201 121t-107 135t-40 180q0 194 131.5 305t363.5 111q114 0 217.5 -27t216.5 -76l-100 -241 q-117 48 -193.5 67t-150.5 19q-88 0 -135 -41t-47 -107q0 -41 19 -71.5t60.5 -59t196.5 -102.5q205 -98 281 -196.5t76 -241.5z" />
<glyph unicode="T" horiz-adv-x="1186" d="M748 0h-310v1204h-397v258h1104v-258h-397v-1204z" />
<glyph unicode="U" horiz-adv-x="1548" d="M1374 1462v-946q0 -162 -72.5 -284t-209.5 -187t-324 -65q-282 0 -438 144.5t-156 395.5v942h309v-895q0 -169 68 -248t225 -79q152 0 220.5 79.5t68.5 249.5v893h309z" />
<glyph unicode="V" horiz-adv-x="1331" d="M1018 1462h313l-497 -1462h-338l-496 1462h313l275 -870q23 -77 47.5 -179.5t30.5 -142.5q11 92 75 322z" />
<glyph unicode="W" horiz-adv-x="1980" d="M1608 0h-353l-198 768q-11 41 -37.5 169.5t-30.5 172.5q-6 -54 -30 -173.5t-37 -170.5l-197 -766h-352l-373 1462h305l187 -798q49 -221 71 -383q6 57 27.5 176.5t40.5 185.5l213 819h293l213 -819q14 -55 35 -168t32 -194q10 78 32 194.5t40 188.5l186 798h305z" />
<glyph unicode="X" horiz-adv-x="1366" d="M1366 0h-354l-340 553l-340 -553h-332l485 754l-454 708h342l315 -526l309 526h334l-459 -725z" />
<glyph unicode="Y" horiz-adv-x="1278" d="M639 860l305 602h334l-485 -893v-569h-308v559l-485 903h336z" />
<glyph unicode="Z" horiz-adv-x="1186" d="M1137 0h-1088v201l701 1005h-682v256h1050v-200l-700 -1006h719v-256z" />
<glyph unicode="[" horiz-adv-x="678" d="M627 -324h-484v1786h484v-211h-224v-1364h224v-211z" />
<glyph unicode="\" horiz-adv-x="846" d="M289 1462l545 -1462h-277l-545 1462h277z" />
<glyph unicode="]" horiz-adv-x="678" d="M51 -113h223v1364h-223v211h484v-1786h-484v211z" />
<glyph unicode="^" horiz-adv-x="1090" d="M8 520l438 950h144l495 -950h-239l-322 643l-280 -643h-236z" />
<glyph unicode="_" horiz-adv-x="842" d="M846 -324h-850v140h850v-140z" />
<glyph unicode="`" horiz-adv-x="1243" d="M707 1241q-63 44 -185 142.5t-190 164.5v21h342q63 -101 235 -301v-27h-202z" />
<glyph unicode="a" horiz-adv-x="1237" d="M870 0l-59 152h-8q-77 -97 -158.5 -134.5t-212.5 -37.5q-161 0 -253.5 92t-92.5 262q0 178 124.5 262.5t375.5 93.5l194 6v49q0 170 -174 170q-134 0 -315 -81l-101 206q193 101 428 101q225 0 345 -98t120 -298v-745h-213zM780 518l-118 -4q-133 -4 -198 -48t-65 -134 q0 -129 148 -129q106 0 169.5 61t63.5 162v92z" />
<glyph unicode="b" horiz-adv-x="1296" d="M782 1139q198 0 310 -154.5t112 -423.5q0 -277 -115.5 -429t-314.5 -152q-197 0 -309 143h-21l-51 -123h-233v1556h305v-362q0 -69 -12 -221h12q107 166 317 166zM684 895q-113 0 -165 -69.5t-54 -229.5v-33q0 -180 53.5 -258t169.5 -78q94 0 149.5 86.5t55.5 251.5 t-56 247.5t-153 82.5z" />
<glyph unicode="c" horiz-adv-x="1053" d="M614 -20q-522 0 -522 573q0 285 142 435.5t407 150.5q194 0 348 -76l-90 -236q-72 29 -134 47.5t-124 18.5q-238 0 -238 -338q0 -328 238 -328q88 0 163 23.5t150 73.5v-261q-74 -47 -149.5 -65t-190.5 -18z" />
<glyph unicode="d" horiz-adv-x="1296" d="M514 -20q-197 0 -309.5 153t-112.5 424q0 275 114.5 428.5t315.5 153.5q211 0 322 -164h10q-23 125 -23 223v358h306v-1556h-234l-59 145h-13q-104 -165 -317 -165zM621 223q117 0 171.5 68t59.5 231v33q0 180 -55.5 258t-180.5 78q-102 0 -158.5 -86.5t-56.5 -251.5 t57 -247.5t163 -82.5z" />
<glyph unicode="e" horiz-adv-x="1210" d="M623 922q-97 0 -152 -61.5t-63 -174.5h428q-2 113 -59 174.5t-154 61.5zM666 -20q-270 0 -422 149t-152 422q0 281 140.5 434.5t388.5 153.5q237 0 369 -135t132 -373v-148h-721q5 -130 77 -203t202 -73q101 0 191 21t188 67v-236q-80 -40 -171 -59.5t-222 -19.5z" />
<glyph unicode="f" horiz-adv-x="793" d="M778 889h-264v-889h-305v889h-168v147l168 82v82q0 191 94 279t301 88q158 0 281 -47l-78 -224q-92 29 -170 29q-65 0 -94 -38.5t-29 -98.5v-70h264v-229z" />
<glyph unicode="g" horiz-adv-x="1157" d="M1133 1118v-155l-175 -45q48 -75 48 -168q0 -180 -125.5 -280.5t-348.5 -100.5l-55 3l-45 5q-47 -36 -47 -80q0 -66 168 -66h190q184 0 280.5 -79t96.5 -232q0 -196 -163.5 -304t-469.5 -108q-234 0 -357.5 81.5t-123.5 228.5q0 101 63 169t185 97q-47 20 -82 65.5 t-35 96.5q0 64 37 106.5t107 83.5q-88 38 -139.5 122t-51.5 198q0 183 119 283t340 100q47 0 111.5 -8.5t82.5 -12.5h390zM270 -158q0 -63 60.5 -99t169.5 -36q164 0 257 45t93 123q0 63 -55 87t-170 24h-158q-84 0 -140.5 -39.5t-56.5 -104.5zM381 752q0 -91 41.5 -144 t126.5 -53q86 0 126 53t40 144q0 202 -166 202q-168 0 -168 -202z" />
<glyph unicode="h" horiz-adv-x="1346" d="M1192 0h-305v653q0 242 -180 242q-128 0 -185 -87t-57 -282v-526h-305v1556h305v-317q0 -37 -7 -174l-7 -90h16q102 164 324 164q197 0 299 -106t102 -304v-729z" />
<glyph unicode="i" horiz-adv-x="625" d="M147 1407q0 149 166 149t166 -149q0 -71 -41.5 -110.5t-124.5 -39.5q-166 0 -166 150zM465 0h-305v1118h305v-1118z" />
<glyph unicode="j" horiz-adv-x="625" d="M70 -492q-117 0 -201 25v240q70 -19 143 -19q77 0 112.5 43t35.5 127v1194h305v-1239q0 -178 -103 -274.5t-292 -96.5zM147 1407q0 149 166 149t166 -149q0 -71 -41.5 -110.5t-124.5 -39.5q-166 0 -166 150z" />
<glyph unicode="k" horiz-adv-x="1270" d="M453 608l133 170l313 340h344l-444 -485l471 -633h-352l-322 453l-131 -105v-348h-305v1556h305v-694l-16 -254h4z" />
<glyph unicode="l" horiz-adv-x="625" d="M465 0h-305v1556h305v-1556z" />
<glyph unicode="m" horiz-adv-x="2011" d="M1161 0h-305v653q0 121 -40.5 181.5t-127.5 60.5q-117 0 -170 -86t-53 -283v-526h-305v1118h233l41 -143h17q45 77 130 120.5t195 43.5q251 0 340 -164h27q45 78 132.5 121t197.5 43q190 0 287.5 -97.5t97.5 -312.5v-729h-306v653q0 121 -40.5 181.5t-127.5 60.5 q-112 0 -167.5 -80t-55.5 -254v-561z" />
<glyph unicode="n" horiz-adv-x="1346" d="M1192 0h-305v653q0 121 -43 181.5t-137 60.5q-128 0 -185 -85.5t-57 -283.5v-526h-305v1118h233l41 -143h17q51 81 140.5 122.5t203.5 41.5q195 0 296 -105.5t101 -304.5v-729z" />
<glyph unicode="o" horiz-adv-x="1268" d="M403 561q0 -166 54.5 -251t177.5 -85q122 0 175.5 84.5t53.5 251.5q0 166 -54 249t-177 83q-122 0 -176 -82.5t-54 -249.5zM1176 561q0 -273 -144 -427t-401 -154q-161 0 -284 70.5t-189 202.5t-66 308q0 274 143 426t402 152q161 0 284 -70t189 -201t66 -307z" />
<glyph unicode="p" horiz-adv-x="1296" d="M774 -20q-197 0 -309 143h-16q16 -140 16 -162v-453h-305v1610h248l43 -145h14q107 166 317 166q198 0 310 -153t112 -425q0 -179 -52.5 -311t-149.5 -201t-228 -69zM684 895q-113 0 -165 -69.5t-54 -229.5v-33q0 -180 53.5 -258t169.5 -78q205 0 205 338 q0 165 -50.5 247.5t-158.5 82.5z" />
<glyph unicode="q" horiz-adv-x="1296" d="M623 219q116 0 170 66.5t59 232.5v37q0 180 -55.5 258t-178.5 78q-215 0 -215 -338q0 -168 53.5 -251t166.5 -83zM514 -20q-198 0 -310 152.5t-112 424.5q0 274 114.5 428t313.5 154q106 0 185 -40t139 -124h8l27 143h258v-1610h-306v469q0 61 13 168h-13 q-49 -81 -130 -123t-187 -42z" />
<glyph unicode="r" horiz-adv-x="930" d="M784 1139q62 0 103 -9l-23 -286q-37 10 -90 10q-146 0 -227.5 -75t-81.5 -210v-569h-305v1118h231l45 -188h15q52 94 140.5 151.5t192.5 57.5z" />
<glyph unicode="s" horiz-adv-x="1018" d="M940 332q0 -172 -119.5 -262t-357.5 -90q-122 0 -208 16.5t-161 48.5v252q85 -40 191.5 -67t187.5 -27q166 0 166 96q0 36 -22 58.5t-76 51t-144 66.5q-129 54 -189.5 100t-88 105.5t-27.5 146.5q0 149 115.5 230.5t327.5 81.5q202 0 393 -88l-92 -220q-84 36 -157 59 t-149 23q-135 0 -135 -73q0 -41 43.5 -71t190.5 -89q131 -53 192 -99t90 -106t29 -143z" />
<glyph unicode="t" horiz-adv-x="889" d="M631 223q80 0 192 35v-227q-114 -51 -280 -51q-183 0 -266.5 92.5t-83.5 277.5v539h-146v129l168 102l88 236h195v-238h313v-229h-313v-539q0 -65 36.5 -96t96.5 -31z" />
<glyph unicode="u" horiz-adv-x="1346" d="M952 0l-41 143h-16q-49 -78 -139 -120.5t-205 -42.5q-197 0 -297 105.5t-100 303.5v729h305v-653q0 -121 43 -181.5t137 -60.5q128 0 185 85.5t57 283.5v526h305v-1118h-234z" />
<glyph unicode="v" horiz-adv-x="1165" d="M426 0l-426 1118h319l216 -637q36 -121 45 -229h6q5 96 45 229l215 637h319l-426 -1118h-313z" />
<glyph unicode="w" horiz-adv-x="1753" d="M1079 0l-86 391l-116 494h-7l-204 -885h-328l-318 1118h304l129 -495q31 -133 63 -367h6q4 76 35 241l16 85l138 536h336l131 -536q4 -22 12.5 -65t16.5 -91.5t14.5 -95t7.5 -74.5h6q9 72 32 197.5t33 169.5l134 495h299l-322 -1118h-332z" />
<glyph unicode="x" horiz-adv-x="1184" d="M389 571l-360 547h346l217 -356l219 356h346l-364 -547l381 -571h-347l-235 383l-236 -383h-346z" />
<glyph unicode="y" horiz-adv-x="1165" d="M0 1118h334l211 -629q27 -82 37 -194h6q11 103 43 194l207 629h327l-473 -1261q-65 -175 -185.5 -262t-281.5 -87q-79 0 -155 17v242q55 -13 120 -13q81 0 141.5 49.5t94.5 149.5l18 55z" />
<glyph unicode="z" horiz-adv-x="999" d="M938 0h-883v180l518 705h-487v233h834v-198l-504 -687h522v-233z" />
<glyph unicode="{" horiz-adv-x="807" d="M287 270q0 87 -65.5 133t-190.5 46v239q126 0 191 44t65 126v8v318q0 153 97 215.5t341 62.5v-225q-99 -3 -136.5 -38t-37.5 -103v-299q-6 -188 -234 -222v-12q234 -35 234 -212v-9v-299q0 -68 37 -103t137 -38v-226q-244 0 -341 62.5t-97 216.5v315z" />
<glyph unicode="|" horiz-adv-x="1128" d="M455 1550h219v-2015h-219v2015z" />
<glyph unicode="}" horiz-adv-x="807" d="M520 -45q0 -112 -41 -169t-135.5 -83.5t-261.5 -26.5v226q99 2 136.5 36t37.5 105v299v11q0 86 59 139.5t174 70.5v12q-227 34 -233 222v299q0 70 -37 104t-137 37v225q167 0 262 -26.5t135.5 -84t40.5 -167.5v-318v-10q0 -84 61.5 -126t194.5 -42v-239 q-125 0 -190.5 -41t-65.5 -138v-315z" />
<glyph unicode="~" d="M322 672q-55 0 -117.5 -33.5t-116.5 -87.5v231q103 109 256 109q73 0 137.5 -16t139.5 -48q129 -55 227 -55q53 0 116 32t117 89v-231q-101 -109 -256 -109q-66 0 -126 13t-150 50q-131 56 -227 56z" />
<glyph unicode="&#xa1;" horiz-adv-x="586" d="M168 606h244l51 -975h-346zM467 948q0 -84 -45 -127t-131 -43q-83 0 -128.5 44t-45.5 126q0 81 46.5 125.5t127.5 44.5q84 0 130 -44t46 -126z" />
<glyph unicode="&#xa2;" d="M563 176q-420 59 -420 565q0 261 104.5 403t315.5 173v166h178v-158q166 -9 299 -74l-90 -235q-72 29 -134 47t-124 18q-121 0 -179 -83.5t-58 -254.5q0 -327 237 -327q82 0 148 15.5t166 60.5v-254q-127 -61 -265 -70v-188h-178v196z" />
<glyph unicode="&#xa3;" d="M700 1483q195 0 390 -82l-93 -230q-157 64 -272 64q-78 0 -120 -44.5t-42 -127.5v-193h375v-219h-375v-143q0 -170 -151 -248h718v-260h-1048v248q103 44 141.5 101t38.5 157v145h-178v219h178v195q0 201 114.5 309.5t323.5 108.5z" />
<glyph unicode="&#xa4;" d="M188 723q0 102 54 197l-129 127l147 147l127 -127q91 53 197 53q105 0 196 -55l127 129l150 -143l-129 -129q53 -89 53 -199q0 -107 -53 -199l125 -125l-146 -145l-127 125q-95 -51 -196 -51q-115 0 -199 51l-125 -123l-145 145l127 125q-54 93 -54 197zM395 723 q0 -77 54.5 -132.5t134.5 -55.5q81 0 136.5 55t55.5 133q0 80 -56.5 135t-135.5 55q-78 0 -133.5 -56t-55.5 -134z" />
<glyph unicode="&#xa5;" d="M584 860l264 602h313l-383 -747h195v-178h-246v-138h246v-178h-246v-221h-287v221h-247v178h247v138h-247v178h190l-377 747h316z" />
<glyph unicode="&#xa6;" horiz-adv-x="1128" d="M455 1550h219v-815h-219v815zM455 350h219v-815h-219v815z" />
<glyph unicode="&#xa7;" horiz-adv-x="995" d="M121 805q0 79 36 144.5t97 105.5q-133 84 -133 233q0 131 111.5 210t293.5 79q170 0 363 -84l-82 -190q-68 32 -138.5 57.5t-148.5 25.5q-81 0 -118 -23t-37 -71q0 -49 49.5 -86t163.5 -82q163 -64 240 -148.5t77 -193.5q0 -177 -125 -260q62 -40 93.5 -92.5t31.5 -126.5 q0 -148 -119.5 -235.5t-320.5 -87.5q-203 0 -349 79v207q81 -41 180 -69.5t169 -28.5q194 0 194 117q0 39 -18.5 63t-63.5 49.5t-125 59.5q-183 74 -252 152.5t-69 195.5zM344 827q0 -67 65 -119t181 -98q78 57 78 146q0 68 -50.5 115t-183.5 96q-37 -14 -63.5 -53.5 t-26.5 -86.5z" />
<glyph unicode="&#xa8;" horiz-adv-x="1243" d="M279 1405q0 65 37.5 100t101.5 35q66 0 103.5 -37t37.5 -98q0 -60 -38 -96.5t-103 -36.5q-64 0 -101.5 35t-37.5 98zM682 1405q0 70 40.5 102.5t100.5 32.5q65 0 103.5 -36t38.5 -99q0 -61 -39 -97t-103 -36q-60 0 -100.5 32.5t-40.5 100.5z" />
<glyph unicode="&#xa9;" horiz-adv-x="1704" d="M895 1010q-97 0 -150 -74t-53 -205q0 -280 203 -280q57 0 123 15t123 44v-191q-120 -57 -252 -57q-204 0 -316 125t-112 346q0 220 110.5 342.5t309.5 122.5q149 0 305 -78l-74 -168q-113 58 -217 58zM100 731q0 200 100 375t275 276t377 101q200 0 375 -100t276 -275 t101 -377q0 -197 -97 -370t-272 -277t-383 -104q-207 0 -382 103.5t-272.5 276.5t-97.5 371zM242 731q0 -164 82 -305.5t224 -223t304 -81.5q164 0 305.5 82t223 224t81.5 304q0 164 -82 305.5t-224 223t-304 81.5q-164 0 -305.5 -82t-223 -224t-81.5 -304z" />
<glyph unicode="&#xaa;" horiz-adv-x="784" d="M561 764l-31 110q-43 -58 -105 -90t-136 -32q-117 0 -179.5 58.5t-62.5 164.5q0 109 82.5 163.5t267.5 63.5l99 4q0 117 -127 117q-81 0 -217 -61l-66 135q66 32 145.5 57t178.5 25q137 0 211.5 -71t74.5 -202v-442h-135zM252 977q0 -38 23 -56t55 -18q77 0 121.5 41.5 t44.5 106.5v36l-99 -6q-145 -10 -145 -104z" />
<glyph unicode="&#xab;" horiz-adv-x="1260" d="M82 573l371 455l219 -119l-279 -348l279 -348l-219 -119l-371 453v26zM588 573l370 455l220 -119l-279 -348l279 -348l-220 -119l-370 453v26z" />
<glyph unicode="&#xac;" d="M1081 248h-219v364h-774v219h993v-583z" />
<glyph unicode="&#xad;" horiz-adv-x="659" d="M61 424v250h537v-250h-537z" />
<glyph unicode="&#xae;" horiz-adv-x="1704" d="M1157 905q0 -170 -143 -233l237 -400h-254l-178 338h-47v-338h-229v916h264q181 0 265.5 -70t84.5 -213zM772 778h31q66 0 94.5 28.5t28.5 94.5q0 65 -28 92t-97 27h-29v-242zM100 731q0 200 100 375t275 276t377 101q200 0 375 -100t276 -275t101 -377q0 -197 -97 -370 t-272 -277t-383 -104q-207 0 -382 103.5t-272.5 276.5t-97.5 371zM242 731q0 -164 82 -305.5t224 -223t304 -81.5q164 0 305.5 82t223 224t81.5 304q0 164 -82 305.5t-224 223t-304 81.5q-164 0 -305.5 -82t-223 -224t-81.5 -304z" />
<glyph unicode="&#xaf;" horiz-adv-x="1024" d="M1030 1556h-1036v201h1036v-201z" />
<glyph unicode="&#xb0;" horiz-adv-x="877" d="M92 1137q0 92 46 172t126 127t174 47q92 0 172.5 -46t127 -127t46.5 -173q0 -93 -46.5 -173.5t-126.5 -125.5t-173 -45q-145 0 -245.5 99.5t-100.5 244.5zM283 1137q0 -64 44.5 -109t110.5 -45t111 46t45 108q0 63 -45.5 110t-110.5 47q-64 0 -109.5 -46t-45.5 -111z" />
<glyph unicode="&#xb1;" d="M475 674h-387v219h387v389h219v-389h387v-219h-387v-385h-219v385zM88 0v219h993v-219h-993z" />
<glyph unicode="&#xb2;" horiz-adv-x="776" d="M702 586h-647v168l224 219q102 100 130.5 144.5t28.5 94.5q0 38 -24 58t-64 20q-81 0 -180 -88l-123 152q147 129 336 129q137 0 216 -66.5t79 -183.5q0 -85 -47 -160t-176 -192l-105 -95h352v-200z" />
<glyph unicode="&#xb3;" horiz-adv-x="776" d="M666 1249q0 -143 -170 -198v-13q94 -20 146 -75t52 -134q0 -121 -88 -190.5t-274 -69.5q-143 0 -273 70v190q148 -90 271 -90q143 0 143 107q0 53 -44 79.5t-122 26.5h-112v160h92q83 0 123.5 26t40.5 83q0 38 -25 63t-76 25q-47 0 -89 -19t-99 -59l-101 141 q62 47 137.5 78t178.5 31q127 0 208 -64t81 -168z" />
<glyph unicode="&#xb4;" horiz-adv-x="1243" d="M332 1241v27q172 200 235 301h342v-21q-52 -52 -177.5 -154.5t-196.5 -152.5h-203z" />
<glyph unicode="&#xb5;" horiz-adv-x="1352" d="M465 465q0 -121 44 -181.5t138 -60.5q126 0 183 86.5t57 282.5v526h305v-1118h-231l-43 150h-15q-42 -85 -102 -127.5t-148 -42.5q-62 0 -114 23t-84 67l5 -85l5 -157v-320h-305v1610h305v-653z" />
<glyph unicode="&#xb6;" horiz-adv-x="1341" d="M1167 -260h-161v1616h-166v-1616h-162v819q-62 -18 -146 -18q-216 0 -317.5 125t-101.5 376q0 260 109 387t341 127h604v-1816z" />
<glyph unicode="&#xb7;" horiz-adv-x="584" d="M117 723q0 84 45 127t131 43q83 0 128.5 -44t45.5 -126q0 -81 -46.5 -125.5t-127.5 -44.5q-84 0 -130 44t-46 126z" />
<glyph unicode="&#xb8;" horiz-adv-x="420" d="M418 -250q0 -128 -75.5 -185t-233.5 -57q-78 0 -146 21v168q27 -7 72.5 -14t70.5 -7q72 0 72 62q0 83 -166 108l78 154h193l-27 -61q74 -24 118 -74.5t44 -114.5z" />
<glyph unicode="&#xb9;" horiz-adv-x="776" d="M584 586h-238v446l3 112l5 95q-27 -36 -75 -78l-78 -61l-109 127l301 235h191v-876z" />
<glyph unicode="&#xba;" horiz-adv-x="795" d="M737 1116q0 -171 -91.5 -267.5t-250.5 -96.5q-153 0 -245.5 98.5t-92.5 265.5q0 169 89.5 266t252.5 97q152 0 245 -98.5t93 -264.5zM260 1116q0 -100 32.5 -150.5t104.5 -50.5t103.5 50.5t31.5 150.5t-31.5 149.5t-103.5 49.5t-104.5 -49.5t-32.5 -149.5z" />
<glyph unicode="&#xbb;" horiz-adv-x="1260" d="M1178 547l-371 -453l-219 119l278 348l-278 348l219 119l371 -455v-26zM672 547l-371 -453l-219 119l278 348l-278 348l219 119l371 -455v-26z" />
<glyph unicode="&#xbc;" horiz-adv-x="1804" d="M538 586h-238v446l3 112l5 95q-27 -36 -75 -78l-78 -61l-109 127l301 235h191v-876zM1370 1462l-811 -1462h-239l811 1462h239zM1682 152h-125v-151h-238v151h-383v154l385 577h236v-563h125v-168zM1319 320v164q0 86 6 184q-9 -26 -35.5 -80t-41.5 -77l-127 -191h198z " />
<glyph unicode="&#xbd;" horiz-adv-x="1804" d="M538 586h-238v446l3 112l5 95q-27 -36 -75 -78l-78 -61l-109 127l301 235h191v-876zM1370 1462l-811 -1462h-239l811 1462h239zM1716 1h-647v168l224 219q102 100 130.5 144.5t28.5 94.5q0 38 -24 58t-64 20q-81 0 -180 -88l-123 152q147 129 336 129q137 0 216 -66.5 t79 -183.5q0 -85 -47 -160t-176 -192l-105 -95h352v-200z" />
<glyph unicode="&#xbe;" horiz-adv-x="1804" d="M697 1249q0 -143 -170 -198v-13q94 -20 146 -75t52 -134q0 -121 -88 -190.5t-274 -69.5q-143 0 -273 70v190q148 -90 271 -90q143 0 143 107q0 53 -44 79.5t-122 26.5h-112v160h92q83 0 123.5 26t40.5 83q0 38 -25 63t-76 25q-47 0 -89 -19t-99 -59l-101 141 q62 47 137.5 78t178.5 31q127 0 208 -64t81 -168zM1441 1462l-811 -1462h-239l811 1462h239zM1712 152h-125v-151h-238v151h-383v154l385 577h236v-563h125v-168zM1349 320v164q0 86 6 184q-9 -26 -35.5 -80t-41.5 -77l-127 -191h198z" />
<glyph unicode="&#xbf;" horiz-adv-x="977" d="M713 606v-74q0 -98 -44.5 -169t-152.5 -148q-109 -78 -137.5 -122t-28.5 -107q0 -57 43.5 -94t132.5 -37q79 0 169 29t186 71l102 -221q-98 -56 -221.5 -90.5t-229.5 -34.5q-220 0 -345.5 96.5t-125.5 265.5q0 108 48.5 187t191.5 184q95 70 121.5 107t26.5 98v59h264z M745 948q0 -84 -45 -127t-131 -43q-83 0 -128.5 44t-45.5 126q0 81 46.5 125.5t127.5 44.5q84 0 130 -44t46 -126z" />
<glyph unicode="&#xc0;" horiz-adv-x="1413" d="M1079 0l-106 348h-533l-106 -348h-334l516 1468h379l518 -1468h-334zM899 608q-147 473 -165.5 535t-26.5 98q-33 -128 -189 -633h381zM713 1579q-63 44 -185 142.5t-190 164.5v21h342q63 -101 235 -301v-27h-202z" />
<glyph unicode="&#xc1;" horiz-adv-x="1413" d="M1079 0l-106 348h-533l-106 -348h-334l516 1468h379l518 -1468h-334zM899 608q-147 473 -165.5 535t-26.5 98q-33 -128 -189 -633h381zM541 1579v27q172 200 235 301h342v-21q-52 -52 -177.5 -154.5t-196.5 -152.5h-203z" />
<glyph unicode="&#xc2;" horiz-adv-x="1413" d="M1079 0l-106 348h-533l-106 -348h-334l516 1468h379l518 -1468h-334zM899 608q-147 473 -165.5 535t-26.5 98q-33 -128 -189 -633h381zM938 1579q-157 93 -234 176q-78 -81 -229 -176h-203v27q189 189 256 301h357q31 -52 107.5 -141.5t148.5 -159.5v-27h-203z" />
<glyph unicode="&#xc3;" horiz-adv-x="1413" d="M1079 0l-106 348h-533l-106 -348h-334l516 1468h379l518 -1468h-334zM899 608q-147 473 -165.5 535t-26.5 98q-33 -128 -189 -633h381zM543 1684q-31 0 -59.5 -26.5t-41.5 -80.5h-149q11 145 82.5 227t189.5 82q41 0 80.5 -16.5t78 -36t75.5 -35.5t73 -16q31 0 59.5 26 t41.5 80h149q-11 -145 -83.5 -227t-188.5 -82q-41 0 -80.5 16.5t-78 36t-75.5 36t-73 16.5z" />
<glyph unicode="&#xc4;" horiz-adv-x="1413" d="M1079 0l-106 348h-533l-106 -348h-334l516 1468h379l518 -1468h-334zM899 608q-147 473 -165.5 535t-26.5 98q-33 -128 -189 -633h381zM365 1743q0 65 37.5 100t101.5 35q66 0 103.5 -37t37.5 -98q0 -60 -38 -96.5t-103 -36.5q-64 0 -101.5 35t-37.5 98zM768 1743 q0 70 40.5 102.5t100.5 32.5q65 0 103.5 -36t38.5 -99q0 -61 -39 -97t-103 -36q-60 0 -100.5 32.5t-40.5 100.5z" />
<glyph unicode="&#xc5;" horiz-adv-x="1413" d="M1079 0l-106 348h-533l-106 -348h-334l516 1468h379l518 -1468h-334zM899 608q-147 473 -165.5 535t-26.5 98q-33 -128 -189 -633h381zM959 1567q0 -108 -71 -174t-183 -66t-180 64t-68 174q0 108 67.5 172.5t180.5 64.5q110 0 182 -66t72 -169zM801 1565q0 45 -27 70.5 t-69 25.5t-69 -25.5t-27 -70.5t24 -71t72 -26q42 0 69 26t27 71z" />
<glyph unicode="&#xc6;" horiz-adv-x="1950" d="M1829 0h-873v348h-491l-150 -348h-315l655 1462h1174v-254h-563v-321h526v-254h-526v-377h563v-256zM578 608h378v590h-127z" />
<glyph unicode="&#xc7;" horiz-adv-x="1305" d="M805 1225q-175 0 -271 -131.5t-96 -366.5q0 -489 367 -489q154 0 373 77v-260q-180 -75 -402 -75q-319 0 -488 193.5t-169 555.5q0 228 83 399.5t238.5 263t364.5 91.5q213 0 428 -103l-100 -252q-82 39 -165 68t-163 29zM959 -250q0 -128 -75.5 -185t-233.5 -57 q-78 0 -146 21v168q27 -7 72.5 -14t70.5 -7q72 0 72 62q0 83 -166 108l78 154h193l-27 -61q74 -24 118 -74.5t44 -114.5z" />
<glyph unicode="&#xc8;" horiz-adv-x="1147" d="M1026 0h-842v1462h842v-254h-532v-321h495v-254h-495v-377h532v-256zM634 1579q-63 44 -185 142.5t-190 164.5v21h342q63 -101 235 -301v-27h-202z" />
<glyph unicode="&#xc9;" horiz-adv-x="1147" d="M1026 0h-842v1462h842v-254h-532v-321h495v-254h-495v-377h532v-256zM424 1579v27q172 200 235 301h342v-21q-52 -52 -177.5 -154.5t-196.5 -152.5h-203z" />
<glyph unicode="&#xca;" horiz-adv-x="1147" d="M1026 0h-842v1462h842v-254h-532v-321h495v-254h-495v-377h532v-256zM841 1579q-157 93 -234 176q-78 -81 -229 -176h-203v27q189 189 256 301h357q31 -52 107.5 -141.5t148.5 -159.5v-27h-203z" />
<glyph unicode="&#xcb;" horiz-adv-x="1147" d="M1026 0h-842v1462h842v-254h-532v-321h495v-254h-495v-377h532v-256zM272 1743q0 65 37.5 100t101.5 35q66 0 103.5 -37t37.5 -98q0 -60 -38 -96.5t-103 -36.5q-64 0 -101.5 35t-37.5 98zM675 1743q0 70 40.5 102.5t100.5 32.5q65 0 103.5 -36t38.5 -99q0 -61 -39 -97 t-103 -36q-60 0 -100.5 32.5t-40.5 100.5z" />
<glyph unicode="&#xcc;" horiz-adv-x="678" d="M184 0v1462h310v-1462h-310zM317 1579q-63 44 -185 142.5t-190 164.5v21h342q63 -101 235 -301v-27h-202z" />
<glyph unicode="&#xcd;" horiz-adv-x="678" d="M184 0v1462h310v-1462h-310zM167 1579v27q172 200 235 301h342v-21q-52 -52 -177.5 -154.5t-196.5 -152.5h-203z" />
<glyph unicode="&#xce;" horiz-adv-x="678" d="M184 0v1462h310v-1462h-310zM570 1579q-157 93 -234 176q-78 -81 -229 -176h-203v27q189 189 256 301h357q31 -52 107.5 -141.5t148.5 -159.5v-27h-203z" />
<glyph unicode="&#xcf;" horiz-adv-x="678" d="M184 0v1462h310v-1462h-310zM-3 1743q0 65 37.5 100t101.5 35q66 0 103.5 -37t37.5 -98q0 -60 -38 -96.5t-103 -36.5q-64 0 -101.5 35t-37.5 98zM400 1743q0 70 40.5 102.5t100.5 32.5q65 0 103.5 -36t38.5 -99q0 -61 -39 -97t-103 -36q-60 0 -100.5 32.5t-40.5 100.5z " />
<glyph unicode="&#xd0;" horiz-adv-x="1516" d="M47 850h137v612h459q358 0 556 -189t198 -528q0 -361 -205.5 -553t-593.5 -192h-414v596h-137v254zM1075 737q0 232 -104 351.5t-314 119.5h-163v-358h237v-254h-237v-340h131q450 0 450 481z" />
<glyph unicode="&#xd1;" horiz-adv-x="1665" d="M1481 0h-394l-636 1106h-9q19 -293 19 -418v-688h-277v1462h391l635 -1095h7q-15 285 -15 403v692h279v-1462zM668 1684q-31 0 -59.5 -26.5t-41.5 -80.5h-149q11 145 82.5 227t189.5 82q41 0 80.5 -16.5t78 -36t75.5 -35.5t73 -16q31 0 59.5 26t41.5 80h149 q-11 -145 -83.5 -227t-188.5 -82q-41 0 -80.5 16.5t-78 36t-75.5 36t-73 16.5z" />
<glyph unicode="&#xd2;" horiz-adv-x="1630" d="M1511 733q0 -363 -180 -558t-516 -195t-516 195t-180 560t180.5 557.5t517.5 192.5t515.5 -194t178.5 -558zM444 733q0 -245 93 -369t278 -124q371 0 371 493q0 494 -369 494q-185 0 -279 -124.5t-94 -369.5zM824 1579q-63 44 -185 142.5t-190 164.5v21h342 q63 -101 235 -301v-27h-202z" />
<glyph unicode="&#xd3;" horiz-adv-x="1630" d="M1511 733q0 -363 -180 -558t-516 -195t-516 195t-180 560t180.5 557.5t517.5 192.5t515.5 -194t178.5 -558zM444 733q0 -245 93 -369t278 -124q371 0 371 493q0 494 -369 494q-185 0 -279 -124.5t-94 -369.5zM658 1579v27q172 200 235 301h342v-21q-52 -52 -177.5 -154.5 t-196.5 -152.5h-203z" />
<glyph unicode="&#xd4;" horiz-adv-x="1630" d="M1511 733q0 -363 -180 -558t-516 -195t-516 195t-180 560t180.5 557.5t517.5 192.5t515.5 -194t178.5 -558zM444 733q0 -245 93 -369t278 -124q371 0 371 493q0 494 -369 494q-185 0 -279 -124.5t-94 -369.5zM1047 1579q-157 93 -234 176q-78 -81 -229 -176h-203v27 q189 189 256 301h357q31 -52 107.5 -141.5t148.5 -159.5v-27h-203z" />
<glyph unicode="&#xd5;" horiz-adv-x="1630" d="M1511 733q0 -363 -180 -558t-516 -195t-516 195t-180 560t180.5 557.5t517.5 192.5t515.5 -194t178.5 -558zM444 733q0 -245 93 -369t278 -124q371 0 371 493q0 494 -369 494q-185 0 -279 -124.5t-94 -369.5zM652 1684q-31 0 -59.5 -26.5t-41.5 -80.5h-149 q11 145 82.5 227t189.5 82q41 0 80.5 -16.5t78 -36t75.5 -35.5t73 -16q31 0 59.5 26t41.5 80h149q-11 -145 -83.5 -227t-188.5 -82q-41 0 -80.5 16.5t-78 36t-75.5 36t-73 16.5z" />
<glyph unicode="&#xd6;" horiz-adv-x="1630" d="M1511 733q0 -363 -180 -558t-516 -195t-516 195t-180 560t180.5 557.5t517.5 192.5t515.5 -194t178.5 -558zM444 733q0 -245 93 -369t278 -124q371 0 371 493q0 494 -369 494q-185 0 -279 -124.5t-94 -369.5zM474 1743q0 65 37.5 100t101.5 35q66 0 103.5 -37t37.5 -98 q0 -60 -38 -96.5t-103 -36.5q-64 0 -101.5 35t-37.5 98zM877 1743q0 70 40.5 102.5t100.5 32.5q65 0 103.5 -36t38.5 -99q0 -61 -39 -97t-103 -36q-60 0 -100.5 32.5t-40.5 100.5z" />
<glyph unicode="&#xd7;" d="M428 723l-299 301l152 154l301 -299l305 299l153 -150l-305 -305l301 -303l-149 -152l-305 301l-301 -299l-150 152z" />
<glyph unicode="&#xd8;" horiz-adv-x="1630" d="M1511 733q0 -363 -180 -558t-516 -195q-197 0 -336 65l-90 -135l-162 108l90 136q-198 194 -198 581q0 365 180.5 557.5t517.5 192.5q198 0 344 -70l84 125l160 -104l-88 -131q194 -194 194 -572zM444 733q0 -191 56 -307l506 756q-84 45 -189 45q-185 0 -279 -124.5 t-94 -369.5zM1186 733q0 180 -51 297l-500 -751q76 -39 180 -39q371 0 371 493z" />
<glyph unicode="&#xd9;" horiz-adv-x="1548" d="M1374 1462v-946q0 -162 -72.5 -284t-209.5 -187t-324 -65q-282 0 -438 144.5t-156 395.5v942h309v-895q0 -169 68 -248t225 -79q152 0 220.5 79.5t68.5 249.5v893h309zM750 1579q-63 44 -185 142.5t-190 164.5v21h342q63 -101 235 -301v-27h-202z" />
<glyph unicode="&#xda;" horiz-adv-x="1548" d="M1374 1462v-946q0 -162 -72.5 -284t-209.5 -187t-324 -65q-282 0 -438 144.5t-156 395.5v942h309v-895q0 -169 68 -248t225 -79q152 0 220.5 79.5t68.5 249.5v893h309zM602 1579v27q172 200 235 301h342v-21q-52 -52 -177.5 -154.5t-196.5 -152.5h-203z" />
<glyph unicode="&#xdb;" horiz-adv-x="1548" d="M1374 1462v-946q0 -162 -72.5 -284t-209.5 -187t-324 -65q-282 0 -438 144.5t-156 395.5v942h309v-895q0 -169 68 -248t225 -79q152 0 220.5 79.5t68.5 249.5v893h309zM1006 1579q-157 93 -234 176q-78 -81 -229 -176h-203v27q189 189 256 301h357q31 -52 107.5 -141.5 t148.5 -159.5v-27h-203z" />
<glyph unicode="&#xdc;" horiz-adv-x="1548" d="M1374 1462v-946q0 -162 -72.5 -284t-209.5 -187t-324 -65q-282 0 -438 144.5t-156 395.5v942h309v-895q0 -169 68 -248t225 -79q152 0 220.5 79.5t68.5 249.5v893h309zM433 1743q0 65 37.5 100t101.5 35q66 0 103.5 -37t37.5 -98q0 -60 -38 -96.5t-103 -36.5 q-64 0 -101.5 35t-37.5 98zM836 1743q0 70 40.5 102.5t100.5 32.5q65 0 103.5 -36t38.5 -99q0 -61 -39 -97t-103 -36q-60 0 -100.5 32.5t-40.5 100.5z" />
<glyph unicode="&#xdd;" horiz-adv-x="1278" d="M639 860l305 602h334l-485 -893v-569h-308v559l-485 903h336zM461 1579v27q172 200 235 301h342v-21q-52 -52 -177.5 -154.5t-196.5 -152.5h-203z" />
<glyph unicode="&#xde;" horiz-adv-x="1286" d="M1194 770q0 -229 -142.5 -353t-404.5 -124h-153v-293h-310v1462h310v-229h178q254 0 388 -119t134 -344zM494 543h100q145 0 216 52.5t71 174.5q0 107 -63.5 159t-199.5 52h-124v-438z" />
<glyph unicode="&#xdf;" horiz-adv-x="1456" d="M1249 1241q0 -64 -21 -112.5t-53 -86.5t-69 -67t-69 -53t-53 -45t-21 -43q0 -27 26.5 -53t92.5 -66q146 -91 198.5 -140t78 -110t25.5 -139q0 -172 -116.5 -259t-343.5 -87q-99 0 -171 14.5t-132 48.5v242q53 -36 135.5 -61t146.5 -25q168 0 168 123q0 41 -16 66.5 t-57 55.5t-115 72q-126 72 -175 131.5t-49 140.5q0 64 35 117t105 102q77 55 108 95t31 86q0 60 -63.5 100.5t-163.5 40.5q-116 0 -181 -52.5t-65 -148.5v-1128h-305v1139q0 201 146.5 314.5t404.5 113.5q244 0 391 -88.5t147 -237.5z" />
<glyph unicode="&#xe0;" horiz-adv-x="1237" d="M870 0l-59 152h-8q-77 -97 -158.5 -134.5t-212.5 -37.5q-161 0 -253.5 92t-92.5 262q0 178 124.5 262.5t375.5 93.5l194 6v49q0 170 -174 170q-134 0 -315 -81l-101 206q193 101 428 101q225 0 345 -98t120 -298v-745h-213zM780 518l-118 -4q-133 -4 -198 -48t-65 -134 q0 -129 148 -129q106 0 169.5 61t63.5 162v92zM614 1241q-63 44 -185 142.5t-190 164.5v21h342q63 -101 235 -301v-27h-202z" />
<glyph unicode="&#xe1;" horiz-adv-x="1237" d="M870 0l-59 152h-8q-77 -97 -158.5 -134.5t-212.5 -37.5q-161 0 -253.5 92t-92.5 262q0 178 124.5 262.5t375.5 93.5l194 6v49q0 170 -174 170q-134 0 -315 -81l-101 206q193 101 428 101q225 0 345 -98t120 -298v-745h-213zM780 518l-118 -4q-133 -4 -198 -48t-65 -134 q0 -129 148 -129q106 0 169.5 61t63.5 162v92zM441 1241v27q172 200 235 301h342v-21q-52 -52 -177.5 -154.5t-196.5 -152.5h-203z" />
<glyph unicode="&#xe2;" horiz-adv-x="1237" d="M870 0l-59 152h-8q-77 -97 -158.5 -134.5t-212.5 -37.5q-161 0 -253.5 92t-92.5 262q0 178 124.5 262.5t375.5 93.5l194 6v49q0 170 -174 170q-134 0 -315 -81l-101 206q193 101 428 101q225 0 345 -98t120 -298v-745h-213zM780 518l-118 -4q-133 -4 -198 -48t-65 -134 q0 -129 148 -129q106 0 169.5 61t63.5 162v92zM843 1240q-157 93 -234 176q-78 -81 -229 -176h-203v27q189 189 256 301h357q31 -52 107.5 -141.5t148.5 -159.5v-27h-203z" />
<glyph unicode="&#xe3;" horiz-adv-x="1237" d="M870 0l-59 152h-8q-77 -97 -158.5 -134.5t-212.5 -37.5q-161 0 -253.5 92t-92.5 262q0 178 124.5 262.5t375.5 93.5l194 6v49q0 170 -174 170q-134 0 -315 -81l-101 206q193 101 428 101q225 0 345 -98t120 -298v-745h-213zM780 518l-118 -4q-133 -4 -198 -48t-65 -134 q0 -129 148 -129q106 0 169.5 61t63.5 162v92zM467 1346q-31 0 -59.5 -26.5t-41.5 -80.5h-149q11 145 82.5 227t189.5 82q41 0 80.5 -16.5t78 -36t75.5 -35.5t73 -16q31 0 59.5 26t41.5 80h149q-11 -145 -83.5 -227t-188.5 -82q-41 0 -80.5 16.5t-78 36t-75.5 36t-73 16.5z " />
<glyph unicode="&#xe4;" horiz-adv-x="1237" d="M870 0l-59 152h-8q-77 -97 -158.5 -134.5t-212.5 -37.5q-161 0 -253.5 92t-92.5 262q0 178 124.5 262.5t375.5 93.5l194 6v49q0 170 -174 170q-134 0 -315 -81l-101 206q193 101 428 101q225 0 345 -98t120 -298v-745h-213zM780 518l-118 -4q-133 -4 -198 -48t-65 -134 q0 -129 148 -129q106 0 169.5 61t63.5 162v92zM285 1405q0 65 37.5 100t101.5 35q66 0 103.5 -37t37.5 -98q0 -60 -38 -96.5t-103 -36.5q-64 0 -101.5 35t-37.5 98zM688 1405q0 70 40.5 102.5t100.5 32.5q65 0 103.5 -36t38.5 -99q0 -61 -39 -97t-103 -36q-60 0 -100.5 32.5 t-40.5 100.5z" />
<glyph unicode="&#xe5;" horiz-adv-x="1237" d="M870 0l-59 152h-8q-77 -97 -158.5 -134.5t-212.5 -37.5q-161 0 -253.5 92t-92.5 262q0 178 124.5 262.5t375.5 93.5l194 6v49q0 170 -174 170q-134 0 -315 -81l-101 206q193 101 428 101q225 0 345 -98t120 -298v-745h-213zM780 518l-118 -4q-133 -4 -198 -48t-65 -134 q0 -129 148 -129q106 0 169.5 61t63.5 162v92zM883 1479q0 -108 -71 -174t-183 -66t-180 64t-68 174q0 108 67.5 172.5t180.5 64.5q110 0 182 -66t72 -169zM725 1477q0 45 -27 70.5t-69 25.5t-69 -25.5t-27 -70.5t24 -71t72 -26q42 0 69 26t27 71z" />
<glyph unicode="&#xe6;" horiz-adv-x="1878" d="M1329 -20q-137 0 -249.5 50.5t-184.5 155.5q-98 -117 -196.5 -161.5t-256.5 -44.5q-161 0 -258.5 94.5t-97.5 259.5q0 178 121 262.5t362 93.5l191 6v84q0 69 -44.5 102t-121.5 33q-140 0 -305 -77l-99 202q189 101 422 101q227 0 342 -131q66 64 152.5 96.5t206.5 32.5 q221 0 349 -137.5t128 -370.5v-148h-723q5 -130 77 -203t202 -73q196 0 380 88v-236q-79 -39 -171 -59t-226 -20zM760 518l-113 -4q-124 -4 -186 -47.5t-62 -134.5q0 -129 140 -129q101 0 161 61t60 162v92zM1307 922q-217 0 -234 -236h430q-2 112 -55 174t-141 62z" />
<glyph unicode="&#xe7;" horiz-adv-x="1053" d="M614 -20q-522 0 -522 573q0 285 142 435.5t407 150.5q194 0 348 -76l-90 -236q-72 29 -134 47.5t-124 18.5q-238 0 -238 -338q0 -328 238 -328q88 0 163 23.5t150 73.5v-261q-74 -47 -149.5 -65t-190.5 -18zM805 -250q0 -128 -75.5 -185t-233.5 -57q-78 0 -146 21v168 q27 -7 72.5 -14t70.5 -7q72 0 72 62q0 83 -166 108l78 154h193l-27 -61q74 -24 118 -74.5t44 -114.5z" />
<glyph unicode="&#xe8;" horiz-adv-x="1210" d="M623 922q-97 0 -152 -61.5t-63 -174.5h428q-2 113 -59 174.5t-154 61.5zM666 -20q-270 0 -422 149t-152 422q0 281 140.5 434.5t388.5 153.5q237 0 369 -135t132 -373v-148h-721q5 -130 77 -203t202 -73q101 0 191 21t188 67v-236q-80 -40 -171 -59.5t-222 -19.5z M620 1241q-63 44 -185 142.5t-190 164.5v21h342q63 -101 235 -301v-27h-202z" />
<glyph unicode="&#xe9;" horiz-adv-x="1210" d="M623 922q-97 0 -152 -61.5t-63 -174.5h428q-2 113 -59 174.5t-154 61.5zM666 -20q-270 0 -422 149t-152 422q0 281 140.5 434.5t388.5 153.5q237 0 369 -135t132 -373v-148h-721q5 -130 77 -203t202 -73q101 0 191 21t188 67v-236q-80 -40 -171 -59.5t-222 -19.5z M447 1241v27q172 200 235 301h342v-21q-52 -52 -177.5 -154.5t-196.5 -152.5h-203z" />
<glyph unicode="&#xea;" horiz-adv-x="1210" d="M623 922q-97 0 -152 -61.5t-63 -174.5h428q-2 113 -59 174.5t-154 61.5zM666 -20q-270 0 -422 149t-152 422q0 281 140.5 434.5t388.5 153.5q237 0 369 -135t132 -373v-148h-721q5 -130 77 -203t202 -73q101 0 191 21t188 67v-236q-80 -40 -171 -59.5t-222 -19.5z M860 1241q-157 93 -234 176q-78 -81 -229 -176h-203v27q189 189 256 301h357q31 -52 107.5 -141.5t148.5 -159.5v-27h-203z" />
<glyph unicode="&#xeb;" horiz-adv-x="1210" d="M623 922q-97 0 -152 -61.5t-63 -174.5h428q-2 113 -59 174.5t-154 61.5zM666 -20q-270 0 -422 149t-152 422q0 281 140.5 434.5t388.5 153.5q237 0 369 -135t132 -373v-148h-721q5 -130 77 -203t202 -73q101 0 191 21t188 67v-236q-80 -40 -171 -59.5t-222 -19.5z M297 1405q0 65 37.5 100t101.5 35q66 0 103.5 -37t37.5 -98q0 -60 -38 -96.5t-103 -36.5q-64 0 -101.5 35t-37.5 98zM700 1405q0 70 40.5 102.5t100.5 32.5q65 0 103.5 -36t38.5 -99q0 -61 -39 -97t-103 -36q-60 0 -100.5 32.5t-40.5 100.5z" />
<glyph unicode="&#xec;" horiz-adv-x="625" d="M465 0h-305v1118h305v-1118zM274 1241q-63 44 -185 142.5t-190 164.5v21h342q63 -101 235 -301v-27h-202z" />
<glyph unicode="&#xed;" horiz-adv-x="625" d="M465 0h-305v1118h305v-1118zM145 1241v27q172 200 235 301h342v-21q-52 -52 -177.5 -154.5t-196.5 -152.5h-203z" />
<glyph unicode="&#xee;" horiz-adv-x="625" d="M465 0h-305v1118h305v-1118zM544 1241q-157 93 -234 176q-78 -81 -229 -176h-203v27q189 189 256 301h357q31 -52 107.5 -141.5t148.5 -159.5v-27h-203z" />
<glyph unicode="&#xef;" horiz-adv-x="625" d="M465 0h-305v1118h305v-1118zM-29 1405q0 65 37.5 100t101.5 35q66 0 103.5 -37t37.5 -98q0 -60 -38 -96.5t-103 -36.5q-64 0 -101.5 35t-37.5 98zM374 1405q0 70 40.5 102.5t100.5 32.5q65 0 103.5 -36t38.5 -99q0 -61 -39 -97t-103 -36q-60 0 -100.5 32.5t-40.5 100.5z " />
<glyph unicode="&#xf0;" horiz-adv-x="1268" d="M510 1303q-80 53 -152 92l101 176q144 -65 258 -141l225 139l100 -154l-170 -104q156 -143 230 -324.5t74 -413.5q0 -280 -145 -436.5t-400 -156.5q-245 0 -392 137t-147 372q0 233 130 369.5t351 136.5q205 0 275 -98l8 4q-67 162 -192 281l-230 -142l-100 156zM864 532 q0 108 -61 173t-168 65q-121 0 -176.5 -68.5t-55.5 -214.5q0 -140 60 -211t172 -71q123 0 176 82t53 245z" />
<glyph unicode="&#xf1;" horiz-adv-x="1346" d="M1192 0h-305v653q0 121 -43 181.5t-137 60.5q-128 0 -185 -85.5t-57 -283.5v-526h-305v1118h233l41 -143h17q51 81 140.5 122.5t203.5 41.5q195 0 296 -105.5t101 -304.5v-729zM508 1346q-31 0 -59.5 -26.5t-41.5 -80.5h-149q11 145 82.5 227t189.5 82q41 0 80.5 -16.5 t78 -36t75.5 -35.5t73 -16q31 0 59.5 26t41.5 80h149q-11 -145 -83.5 -227t-188.5 -82q-41 0 -80.5 16.5t-78 36t-75.5 36t-73 16.5z" />
<glyph unicode="&#xf2;" horiz-adv-x="1268" d="M403 561q0 -166 54.5 -251t177.5 -85q122 0 175.5 84.5t53.5 251.5q0 166 -54 249t-177 83q-122 0 -176 -82.5t-54 -249.5zM1176 561q0 -273 -144 -427t-401 -154q-161 0 -284 70.5t-189 202.5t-66 308q0 274 143 426t402 152q161 0 284 -70t189 -201t66 -307zM612 1241 q-63 44 -185 142.5t-190 164.5v21h342q63 -101 235 -301v-27h-202z" />
<glyph unicode="&#xf3;" horiz-adv-x="1268" d="M403 561q0 -166 54.5 -251t177.5 -85q122 0 175.5 84.5t53.5 251.5q0 166 -54 249t-177 83q-122 0 -176 -82.5t-54 -249.5zM1176 561q0 -273 -144 -427t-401 -154q-161 0 -284 70.5t-189 202.5t-66 308q0 274 143 426t402 152q161 0 284 -70t189 -201t66 -307zM467 1241 v27q172 200 235 301h342v-21q-52 -52 -177.5 -154.5t-196.5 -152.5h-203z" />
<glyph unicode="&#xf4;" horiz-adv-x="1268" d="M403 561q0 -166 54.5 -251t177.5 -85q122 0 175.5 84.5t53.5 251.5q0 166 -54 249t-177 83q-122 0 -176 -82.5t-54 -249.5zM1176 561q0 -273 -144 -427t-401 -154q-161 0 -284 70.5t-189 202.5t-66 308q0 274 143 426t402 152q161 0 284 -70t189 -201t66 -307zM864 1241 q-157 93 -234 176q-78 -81 -229 -176h-203v27q189 189 256 301h357q31 -52 107.5 -141.5t148.5 -159.5v-27h-203z" />
<glyph unicode="&#xf5;" horiz-adv-x="1268" d="M403 561q0 -166 54.5 -251t177.5 -85q122 0 175.5 84.5t53.5 251.5q0 166 -54 249t-177 83q-122 0 -176 -82.5t-54 -249.5zM1176 561q0 -273 -144 -427t-401 -154q-161 0 -284 70.5t-189 202.5t-66 308q0 274 143 426t402 152q161 0 284 -70t189 -201t66 -307zM469 1346 q-31 0 -59.5 -26.5t-41.5 -80.5h-149q11 145 82.5 227t189.5 82q41 0 80.5 -16.5t78 -36t75.5 -35.5t73 -16q31 0 59.5 26t41.5 80h149q-11 -145 -83.5 -227t-188.5 -82q-41 0 -80.5 16.5t-78 36t-75.5 36t-73 16.5z" />
<glyph unicode="&#xf6;" horiz-adv-x="1268" d="M403 561q0 -166 54.5 -251t177.5 -85q122 0 175.5 84.5t53.5 251.5q0 166 -54 249t-177 83q-122 0 -176 -82.5t-54 -249.5zM1176 561q0 -273 -144 -427t-401 -154q-161 0 -284 70.5t-189 202.5t-66 308q0 274 143 426t402 152q161 0 284 -70t189 -201t66 -307zM291 1405 q0 65 37.5 100t101.5 35q66 0 103.5 -37t37.5 -98q0 -60 -38 -96.5t-103 -36.5q-64 0 -101.5 35t-37.5 98zM694 1405q0 70 40.5 102.5t100.5 32.5q65 0 103.5 -36t38.5 -99q0 -61 -39 -97t-103 -36q-60 0 -100.5 32.5t-40.5 100.5z" />
<glyph unicode="&#xf7;" d="M88 612v219h993v-219h-993zM444 373q0 76 37 113.5t103 37.5t102.5 -39t36.5 -112q0 -70 -37 -111t-102 -41t-102.5 39t-37.5 113zM444 1071q0 75 37 113.5t103 38.5q67 0 103 -40.5t36 -111.5q0 -70 -37 -110.5t-102 -40.5t-102.5 39t-37.5 112z" />
<glyph unicode="&#xf8;" horiz-adv-x="1268" d="M1176 561q0 -273 -144 -427t-401 -154q-126 0 -234 45l-67 -101l-154 105l68 100q-152 156 -152 432q0 274 143 426t402 152q132 0 248 -52l55 82l152 -108l-58 -84q142 -155 142 -416zM403 561q0 -94 19 -166l317 475q-43 23 -106 23q-122 0 -176 -82.5t-54 -249.5z M864 561q0 81 -12 141l-309 -462q38 -15 92 -15q122 0 175.5 84.5t53.5 251.5z" />
<glyph unicode="&#xf9;" horiz-adv-x="1346" d="M952 0l-41 143h-16q-49 -78 -139 -120.5t-205 -42.5q-197 0 -297 105.5t-100 303.5v729h305v-653q0 -121 43 -181.5t137 -60.5q128 0 185 85.5t57 283.5v526h305v-1118h-234zM620 1241q-63 44 -185 142.5t-190 164.5v21h342q63 -101 235 -301v-27h-202z" />
<glyph unicode="&#xfa;" horiz-adv-x="1346" d="M952 0l-41 143h-16q-49 -78 -139 -120.5t-205 -42.5q-197 0 -297 105.5t-100 303.5v729h305v-653q0 -121 43 -181.5t137 -60.5q128 0 185 85.5t57 283.5v526h305v-1118h-234zM498 1241v27q172 200 235 301h342v-21q-52 -52 -177.5 -154.5t-196.5 -152.5h-203z" />
<glyph unicode="&#xfb;" horiz-adv-x="1346" d="M952 0l-41 143h-16q-49 -78 -139 -120.5t-205 -42.5q-197 0 -297 105.5t-100 303.5v729h305v-653q0 -121 43 -181.5t137 -60.5q128 0 185 85.5t57 283.5v526h305v-1118h-234zM901 1241q-157 93 -234 176q-78 -81 -229 -176h-203v27q189 189 256 301h357 q31 -52 107.5 -141.5t148.5 -159.5v-27h-203z" />
<glyph unicode="&#xfc;" horiz-adv-x="1346" d="M952 0l-41 143h-16q-49 -78 -139 -120.5t-205 -42.5q-197 0 -297 105.5t-100 303.5v729h305v-653q0 -121 43 -181.5t137 -60.5q128 0 185 85.5t57 283.5v526h305v-1118h-234zM326 1405q0 65 37.5 100t101.5 35q66 0 103.5 -37t37.5 -98q0 -60 -38 -96.5t-103 -36.5 q-64 0 -101.5 35t-37.5 98zM729 1405q0 70 40.5 102.5t100.5 32.5q65 0 103.5 -36t38.5 -99q0 -61 -39 -97t-103 -36q-60 0 -100.5 32.5t-40.5 100.5z" />
<glyph unicode="&#xfd;" horiz-adv-x="1165" d="M0 1118h334l211 -629q27 -82 37 -194h6q11 103 43 194l207 629h327l-473 -1261q-65 -175 -185.5 -262t-281.5 -87q-79 0 -155 17v242q55 -13 120 -13q81 0 141.5 49.5t94.5 149.5l18 55zM393 1241v27q172 200 235 301h342v-21q-52 -52 -177.5 -154.5t-196.5 -152.5h-203z " />
<glyph unicode="&#xfe;" horiz-adv-x="1296" d="M465 973q50 81 131 123.5t186 42.5q198 0 310 -154.5t112 -423.5q0 -273 -111.5 -427t-310.5 -154q-213 0 -317 137h-14l7 -62l7 -94v-453h-305v2048h305v-391l-7 -120l-7 -72h14zM684 895q-113 0 -165 -69.5t-54 -229.5v-33q0 -180 53.5 -258t169.5 -78q205 0 205 338 q0 165 -50.5 247.5t-158.5 82.5z" />
<glyph unicode="&#xff;" horiz-adv-x="1165" d="M0 1118h334l211 -629q27 -82 37 -194h6q11 103 43 194l207 629h327l-473 -1261q-65 -175 -185.5 -262t-281.5 -87q-79 0 -155 17v242q55 -13 120 -13q81 0 141.5 49.5t94.5 149.5l18 55zM243 1405q0 65 37.5 100t101.5 35q66 0 103.5 -37t37.5 -98q0 -60 -38 -96.5 t-103 -36.5q-64 0 -101.5 35t-37.5 98zM646 1405q0 70 40.5 102.5t100.5 32.5q65 0 103.5 -36t38.5 -99q0 -61 -39 -97t-103 -36q-60 0 -100.5 32.5t-40.5 100.5z" />
<glyph unicode="&#x100;" horiz-adv-x="1413" d="M1079 0l-106 348h-533l-106 -348h-334l516 1468h379l518 -1468h-334zM899 608q-147 473 -165.5 535t-26.5 98q-33 -128 -189 -633h381zM371 1790h678v-211h-678v211z" />
<glyph unicode="&#x101;" horiz-adv-x="1237" d="M870 0l-59 152h-8q-77 -97 -158.5 -134.5t-212.5 -37.5q-161 0 -253.5 92t-92.5 262q0 178 124.5 262.5t375.5 93.5l194 6v49q0 170 -174 170q-134 0 -315 -81l-101 206q193 101 428 101q225 0 345 -98t120 -298v-745h-213zM780 518l-118 -4q-133 -4 -198 -48t-65 -134 q0 -129 148 -129q106 0 169.5 61t63.5 162v92zM293 1452h678v-211h-678v211z" />
<glyph unicode="&#x102;" horiz-adv-x="1413" d="M1079 0l-106 348h-533l-106 -348h-334l516 1468h379l518 -1468h-334zM899 608q-147 473 -165.5 535t-26.5 98q-33 -128 -189 -633h381zM1100 1917q-12 -154 -122 -246t-276 -92q-174 0 -277.5 91t-111.5 247h170q4 -47 27.5 -74t66 -39t127.5 -12q206 0 222 125h174z" />
<glyph unicode="&#x103;" horiz-adv-x="1237" d="M870 0l-59 152h-8q-77 -97 -158.5 -134.5t-212.5 -37.5q-161 0 -253.5 92t-92.5 262q0 178 124.5 262.5t375.5 93.5l194 6v49q0 170 -174 170q-134 0 -315 -81l-101 206q193 101 428 101q225 0 345 -98t120 -298v-745h-213zM780 518l-118 -4q-133 -4 -198 -48t-65 -134 q0 -129 148 -129q106 0 169.5 61t63.5 162v92zM1026 1579q-12 -154 -122 -246t-276 -92q-174 0 -277.5 91t-111.5 247h170q4 -47 27.5 -74t66 -39t127.5 -12q206 0 222 125h174z" />
<glyph unicode="&#x104;" horiz-adv-x="1413" d="M1079 0l-106 348h-533l-106 -348h-334l516 1468h379l518 -1468h-334zM899 608q-147 473 -165.5 535t-26.5 98q-33 -128 -189 -633h381zM1112 -227q0 -42 22.5 -62t57.5 -20q55 0 115 18v-178q-82 -23 -156 -23q-113 0 -181.5 63.5t-68.5 166.5q0 67 38 126t142 136h179 q-70 -66 -109 -120.5t-39 -106.5z" />
<glyph unicode="&#x105;" horiz-adv-x="1237" d="M870 0l-59 152h-8q-77 -97 -158.5 -134.5t-212.5 -37.5q-161 0 -253.5 92t-92.5 262q0 178 124.5 262.5t375.5 93.5l194 6v49q0 170 -174 170q-134 0 -315 -81l-101 206q193 101 428 101q225 0 345 -98t120 -298v-745h-213zM780 518l-118 -4q-133 -4 -198 -48t-65 -134 q0 -129 148 -129q106 0 169.5 61t63.5 162v92zM905 -227q0 -42 22.5 -62t57.5 -20q55 0 115 18v-178q-82 -23 -156 -23q-113 0 -181.5 63.5t-68.5 166.5q0 67 38 126t142 136h179q-70 -66 -109 -120.5t-39 -106.5z" />
<glyph unicode="&#x106;" horiz-adv-x="1305" d="M805 1225q-175 0 -271 -131.5t-96 -366.5q0 -489 367 -489q154 0 373 77v-260q-180 -75 -402 -75q-319 0 -488 193.5t-169 555.5q0 228 83 399.5t238.5 263t364.5 91.5q213 0 428 -103l-100 -252q-82 39 -165 68t-163 29zM598 1579v27q172 200 235 301h342v-21 q-52 -52 -177.5 -154.5t-196.5 -152.5h-203z" />
<glyph unicode="&#x107;" horiz-adv-x="1053" d="M614 -20q-522 0 -522 573q0 285 142 435.5t407 150.5q194 0 348 -76l-90 -236q-72 29 -134 47.5t-124 18.5q-238 0 -238 -338q0 -328 238 -328q88 0 163 23.5t150 73.5v-261q-74 -47 -149.5 -65t-190.5 -18zM443 1241v27q172 200 235 301h342v-21q-52 -52 -177.5 -154.5 t-196.5 -152.5h-203z" />
<glyph unicode="&#x108;" horiz-adv-x="1305" d="M805 1225q-175 0 -271 -131.5t-96 -366.5q0 -489 367 -489q154 0 373 77v-260q-180 -75 -402 -75q-319 0 -488 193.5t-169 555.5q0 228 83 399.5t238.5 263t364.5 91.5q213 0 428 -103l-100 -252q-82 39 -165 68t-163 29zM1022 1579q-157 93 -234 176q-78 -81 -229 -176 h-203v27q189 189 256 301h357q31 -52 107.5 -141.5t148.5 -159.5v-27h-203z" />
<glyph unicode="&#x109;" horiz-adv-x="1053" d="M614 -20q-522 0 -522 573q0 285 142 435.5t407 150.5q194 0 348 -76l-90 -236q-72 29 -134 47.5t-124 18.5q-238 0 -238 -338q0 -328 238 -328q88 0 163 23.5t150 73.5v-261q-74 -47 -149.5 -65t-190.5 -18zM835 1241q-157 93 -234 176q-78 -81 -229 -176h-203v27 q189 189 256 301h357q31 -52 107.5 -141.5t148.5 -159.5v-27h-203z" />
<glyph unicode="&#x10a;" horiz-adv-x="1305" d="M805 1225q-175 0 -271 -131.5t-96 -366.5q0 -489 367 -489q154 0 373 77v-260q-180 -75 -402 -75q-319 0 -488 193.5t-169 555.5q0 228 83 399.5t238.5 263t364.5 91.5q213 0 428 -103l-100 -252q-82 39 -165 68t-163 29zM620 1745q0 149 166 149t166 -149 q0 -71 -41.5 -110.5t-124.5 -39.5q-166 0 -166 150z" />
<glyph unicode="&#x10b;" horiz-adv-x="1053" d="M614 -20q-522 0 -522 573q0 285 142 435.5t407 150.5q194 0 348 -76l-90 -236q-72 29 -134 47.5t-124 18.5q-238 0 -238 -338q0 -328 238 -328q88 0 163 23.5t150 73.5v-261q-74 -47 -149.5 -65t-190.5 -18zM462 1407q0 149 166 149t166 -149q0 -71 -41.5 -110.5 t-124.5 -39.5q-166 0 -166 150z" />
<glyph unicode="&#x10c;" horiz-adv-x="1305" d="M805 1225q-175 0 -271 -131.5t-96 -366.5q0 -489 367 -489q154 0 373 77v-260q-180 -75 -402 -75q-319 0 -488 193.5t-169 555.5q0 228 83 399.5t238.5 263t364.5 91.5q213 0 428 -103l-100 -252q-82 39 -165 68t-163 29zM1227 1907v-27q-84 -84 -154.5 -167.5 t-101.5 -133.5h-357q-29 47 -83 112.5t-173 188.5v27h203q147 -93 229 -176q84 87 234 176h203z" />
<glyph unicode="&#x10d;" horiz-adv-x="1053" d="M614 -20q-522 0 -522 573q0 285 142 435.5t407 150.5q194 0 348 -76l-90 -236q-72 29 -134 47.5t-124 18.5q-238 0 -238 -338q0 -328 238 -328q88 0 163 23.5t150 73.5v-261q-74 -47 -149.5 -65t-190.5 -18zM1055 1569v-27q-84 -84 -154.5 -167.5t-101.5 -133.5h-357 q-29 47 -83 112.5t-173 188.5v27h203q147 -93 229 -176q84 87 234 176h203z" />
<glyph unicode="&#x10e;" horiz-adv-x="1516" d="M1397 745q0 -361 -205.5 -553t-593.5 -192h-414v1462h459q358 0 556 -189t198 -528zM1075 737q0 471 -416 471h-165v-952h133q448 0 448 481zM1159 1907v-27q-84 -84 -154.5 -167.5t-101.5 -133.5h-357q-29 47 -83 112.5t-173 188.5v27h203q147 -93 229 -176 q84 87 234 176h203z" />
<glyph unicode="&#x10f;" horiz-adv-x="1296" d="M514 -20q-197 0 -309.5 153t-112.5 424q0 275 114.5 428.5t315.5 153.5q211 0 322 -164h10q-23 125 -23 223v358h306v-1556h-234l-59 145h-13q-104 -165 -317 -165zM621 223q117 0 171.5 68t59.5 231v33q0 180 -55.5 258t-180.5 78q-102 0 -158.5 -86.5t-56.5 -251.5 t57 -247.5t163 -82.5zM1229 1255q15 49 34.5 143t27.5 158h282v-20q-80 -176 -166 -307h-178v26z" />
<glyph unicode="&#x110;" horiz-adv-x="1516" d="M47 850h137v612h459q358 0 556 -189t198 -528q0 -361 -205.5 -553t-593.5 -192h-414v596h-137v254zM1075 737q0 232 -104 351.5t-314 119.5h-163v-358h237v-254h-237v-340h131q450 0 450 481z" />
<glyph unicode="&#x111;" horiz-adv-x="1329" d="M504 -20q-192 0 -302 144t-110 402q0 282 99 416.5t323 134.5q108 0 192.5 -42t137.5 -122h10q-23 131 -23 232v51h-315v199h315v161h306v-161h155v-199h-155v-1196h-248l-64 145h-12q-104 -165 -309 -165zM633 223q110 0 162.5 61.5t56.5 211.5v28q0 176 -50.5 240.5 t-183.5 64.5q-111 0 -152.5 -69t-41.5 -238q0 -149 50 -224t159 -75z" />
<glyph unicode="&#x112;" horiz-adv-x="1147" d="M1026 0h-842v1462h842v-254h-532v-321h495v-254h-495v-377h532v-256zM274 1790h678v-211h-678v211z" />
<glyph unicode="&#x113;" horiz-adv-x="1210" d="M623 922q-97 0 -152 -61.5t-63 -174.5h428q-2 113 -59 174.5t-154 61.5zM666 -20q-270 0 -422 149t-152 422q0 281 140.5 434.5t388.5 153.5q237 0 369 -135t132 -373v-148h-721q5 -130 77 -203t202 -73q101 0 191 21t188 67v-236q-80 -40 -171 -59.5t-222 -19.5z M278 1452h678v-211h-678v211z" />
<glyph unicode="&#x114;" horiz-adv-x="1147" d="M1026 0h-842v1462h842v-254h-532v-321h495v-254h-495v-377h532v-256zM992 1917q-12 -154 -122 -246t-276 -92q-174 0 -277.5 91t-111.5 247h170q4 -47 27.5 -74t66 -39t127.5 -12q206 0 222 125h174z" />
<glyph unicode="&#x115;" horiz-adv-x="1210" d="M623 922q-97 0 -152 -61.5t-63 -174.5h428q-2 113 -59 174.5t-154 61.5zM666 -20q-270 0 -422 149t-152 422q0 281 140.5 434.5t388.5 153.5q237 0 369 -135t132 -373v-148h-721q5 -130 77 -203t202 -73q101 0 191 21t188 67v-236q-80 -40 -171 -59.5t-222 -19.5z M1014 1579q-12 -154 -122 -246t-276 -92q-174 0 -277.5 91t-111.5 247h170q4 -47 27.5 -74t66 -39t127.5 -12q206 0 222 125h174z" />
<glyph unicode="&#x116;" horiz-adv-x="1147" d="M1026 0h-842v1462h842v-254h-532v-321h495v-254h-495v-377h532v-256zM450 1716q0 149 166 149t166 -149q0 -71 -41.5 -110.5t-124.5 -39.5q-166 0 -166 150z" />
<glyph unicode="&#x117;" horiz-adv-x="1210" d="M623 922q-97 0 -152 -61.5t-63 -174.5h428q-2 113 -59 174.5t-154 61.5zM666 -20q-270 0 -422 149t-152 422q0 281 140.5 434.5t388.5 153.5q237 0 369 -135t132 -373v-148h-721q5 -130 77 -203t202 -73q101 0 191 21t188 67v-236q-80 -40 -171 -59.5t-222 -19.5z M466 1407q0 149 166 149t166 -149q0 -71 -41.5 -110.5t-124.5 -39.5q-166 0 -166 150z" />
<glyph unicode="&#x118;" horiz-adv-x="1147" d="M1026 0h-842v1462h842v-254h-532v-321h495v-254h-495v-377h532v-256zM786 -227q0 -42 22.5 -62t57.5 -20q55 0 115 18v-178q-82 -23 -156 -23q-113 0 -181.5 63.5t-68.5 166.5q0 67 38 126t142 136h179q-70 -66 -109 -120.5t-39 -106.5z" />
<glyph unicode="&#x119;" horiz-adv-x="1210" d="M623 922q-97 0 -152 -61.5t-63 -174.5h428q-2 113 -59 174.5t-154 61.5zM666 -20q-270 0 -422 149t-152 422q0 281 140.5 434.5t388.5 153.5q237 0 369 -135t132 -373v-148h-721q5 -130 77 -203t202 -73q101 0 191 21t188 67v-236q-80 -40 -171 -59.5t-222 -19.5z M796 -207q0 -42 22.5 -62t57.5 -20q55 0 115 18v-178q-82 -23 -156 -23q-113 0 -181.5 63.5t-68.5 166.5q0 67 38 126t142 136h179q-70 -66 -109 -120.5t-39 -106.5z" />
<glyph unicode="&#x11a;" horiz-adv-x="1147" d="M1026 0h-842v1462h842v-254h-532v-321h495v-254h-495v-377h532v-256zM1044 1907v-27q-84 -84 -154.5 -167.5t-101.5 -133.5h-357q-29 47 -83 112.5t-173 188.5v27h203q147 -93 229 -176q84 87 234 176h203z" />
<glyph unicode="&#x11b;" horiz-adv-x="1210" d="M623 922q-97 0 -152 -61.5t-63 -174.5h428q-2 113 -59 174.5t-154 61.5zM666 -20q-270 0 -422 149t-152 422q0 281 140.5 434.5t388.5 153.5q237 0 369 -135t132 -373v-148h-721q5 -130 77 -203t202 -73q101 0 191 21t188 67v-236q-80 -40 -171 -59.5t-222 -19.5z M1057 1569v-27q-84 -84 -154.5 -167.5t-101.5 -133.5h-357q-29 47 -83 112.5t-173 188.5v27h203q147 -93 229 -176q84 87 234 176h203z" />
<glyph unicode="&#x11c;" horiz-adv-x="1483" d="M739 821h580v-758q-141 -46 -265.5 -64.5t-254.5 -18.5q-331 0 -505.5 194.5t-174.5 558.5q0 354 202.5 552t561.5 198q225 0 434 -90l-103 -248q-160 80 -333 80q-201 0 -322 -135t-121 -363q0 -238 97.5 -363.5t283.5 -125.5q97 0 197 20v305h-277v258zM1036 1579 q-157 93 -234 176q-78 -81 -229 -176h-203v27q189 189 256 301h357q31 -52 107.5 -141.5t148.5 -159.5v-27h-203z" />
<glyph unicode="&#x11d;" horiz-adv-x="1157" d="M1133 1118v-155l-175 -45q48 -75 48 -168q0 -180 -125.5 -280.5t-348.5 -100.5l-55 3l-45 5q-47 -36 -47 -80q0 -66 168 -66h190q184 0 280.5 -79t96.5 -232q0 -196 -163.5 -304t-469.5 -108q-234 0 -357.5 81.5t-123.5 228.5q0 101 63 169t185 97q-47 20 -82 65.5 t-35 96.5q0 64 37 106.5t107 83.5q-88 38 -139.5 122t-51.5 198q0 183 119 283t340 100q47 0 111.5 -8.5t82.5 -12.5h390zM270 -158q0 -63 60.5 -99t169.5 -36q164 0 257 45t93 123q0 63 -55 87t-170 24h-158q-84 0 -140.5 -39.5t-56.5 -104.5zM381 752q0 -91 41.5 -144 t126.5 -53q86 0 126 53t40 144q0 202 -166 202q-168 0 -168 -202zM816 1241q-157 93 -234 176q-78 -81 -229 -176h-203v27q189 189 256 301h357q31 -52 107.5 -141.5t148.5 -159.5v-27h-203z" />
<glyph unicode="&#x11e;" horiz-adv-x="1483" d="M739 821h580v-758q-141 -46 -265.5 -64.5t-254.5 -18.5q-331 0 -505.5 194.5t-174.5 558.5q0 354 202.5 552t561.5 198q225 0 434 -90l-103 -248q-160 80 -333 80q-201 0 -322 -135t-121 -363q0 -238 97.5 -363.5t283.5 -125.5q97 0 197 20v305h-277v258zM1204 1917 q-12 -154 -122 -246t-276 -92q-174 0 -277.5 91t-111.5 247h170q4 -47 27.5 -74t66 -39t127.5 -12q206 0 222 125h174z" />
<glyph unicode="&#x11f;" horiz-adv-x="1157" d="M1133 1118v-155l-175 -45q48 -75 48 -168q0 -180 -125.5 -280.5t-348.5 -100.5l-55 3l-45 5q-47 -36 -47 -80q0 -66 168 -66h190q184 0 280.5 -79t96.5 -232q0 -196 -163.5 -304t-469.5 -108q-234 0 -357.5 81.5t-123.5 228.5q0 101 63 169t185 97q-47 20 -82 65.5 t-35 96.5q0 64 37 106.5t107 83.5q-88 38 -139.5 122t-51.5 198q0 183 119 283t340 100q47 0 111.5 -8.5t82.5 -12.5h390zM270 -158q0 -63 60.5 -99t169.5 -36q164 0 257 45t93 123q0 63 -55 87t-170 24h-158q-84 0 -140.5 -39.5t-56.5 -104.5zM381 752q0 -91 41.5 -144 t126.5 -53q86 0 126 53t40 144q0 202 -166 202q-168 0 -168 -202zM984 1579q-12 -154 -122 -246t-276 -92q-174 0 -277.5 91t-111.5 247h170q4 -47 27.5 -74t66 -39t127.5 -12q206 0 222 125h174z" />
<glyph unicode="&#x120;" horiz-adv-x="1483" d="M739 821h580v-758q-141 -46 -265.5 -64.5t-254.5 -18.5q-331 0 -505.5 194.5t-174.5 558.5q0 354 202.5 552t561.5 198q225 0 434 -90l-103 -248q-160 80 -333 80q-201 0 -322 -135t-121 -363q0 -238 97.5 -363.5t283.5 -125.5q97 0 197 20v305h-277v258zM655 1745 q0 149 166 149t166 -149q0 -71 -41.5 -110.5t-124.5 -39.5q-166 0 -166 150z" />
<glyph unicode="&#x121;" horiz-adv-x="1157" d="M1133 1118v-155l-175 -45q48 -75 48 -168q0 -180 -125.5 -280.5t-348.5 -100.5l-55 3l-45 5q-47 -36 -47 -80q0 -66 168 -66h190q184 0 280.5 -79t96.5 -232q0 -196 -163.5 -304t-469.5 -108q-234 0 -357.5 81.5t-123.5 228.5q0 101 63 169t185 97q-47 20 -82 65.5 t-35 96.5q0 64 37 106.5t107 83.5q-88 38 -139.5 122t-51.5 198q0 183 119 283t340 100q47 0 111.5 -8.5t82.5 -12.5h390zM270 -158q0 -63 60.5 -99t169.5 -36q164 0 257 45t93 123q0 63 -55 87t-170 24h-158q-84 0 -140.5 -39.5t-56.5 -104.5zM381 752q0 -91 41.5 -144 t126.5 -53q86 0 126 53t40 144q0 202 -166 202q-168 0 -168 -202zM411 1407q0 149 166 149t166 -149q0 -71 -41.5 -110.5t-124.5 -39.5q-166 0 -166 150z" />
<glyph unicode="&#x122;" horiz-adv-x="1483" d="M739 821h580v-758q-141 -46 -265.5 -64.5t-254.5 -18.5q-331 0 -505.5 194.5t-174.5 558.5q0 354 202.5 552t561.5 198q225 0 434 -90l-103 -248q-160 80 -333 80q-201 0 -322 -135t-121 -363q0 -238 97.5 -363.5t283.5 -125.5q97 0 197 20v305h-277v258zM629 -426 q15 49 34.5 143t27.5 158h282v-20q-75 -168 -166 -308h-178v27z" />
<glyph unicode="&#x123;" horiz-adv-x="1157" d="M1133 1118v-155l-175 -45q48 -75 48 -168q0 -180 -125.5 -280.5t-348.5 -100.5l-55 3l-45 5q-47 -36 -47 -80q0 -66 168 -66h190q184 0 280.5 -79t96.5 -232q0 -196 -163.5 -304t-469.5 -108q-234 0 -357.5 81.5t-123.5 228.5q0 101 63 169t185 97q-47 20 -82 65.5 t-35 96.5q0 64 37 106.5t107 83.5q-88 38 -139.5 122t-51.5 198q0 183 119 283t340 100q47 0 111.5 -8.5t82.5 -12.5h390zM270 -158q0 -63 60.5 -99t169.5 -36q164 0 257 45t93 123q0 63 -55 87t-170 24h-158q-84 0 -140.5 -39.5t-56.5 -104.5zM381 752q0 -91 41.5 -144 t126.5 -53q86 0 126 53t40 144q0 202 -166 202q-168 0 -168 -202zM768 1542q-15 -49 -34.5 -143t-27.5 -158h-282v21q78 170 166 307h178v-27z" />
<glyph unicode="&#x124;" horiz-adv-x="1567" d="M1382 0h-309v631h-579v-631h-310v1462h310v-573h579v573h309v-1462zM1012 1579q-157 93 -234 176q-78 -81 -229 -176h-203v27q189 189 256 301h357q31 -52 107.5 -141.5t148.5 -159.5v-27h-203z" />
<glyph unicode="&#x125;" horiz-adv-x="1346" d="M1192 0h-305v653q0 242 -180 242q-128 0 -185 -87t-57 -282v-526h-305v1556h305v-317q0 -37 -7 -174l-7 -90h16q102 164 324 164q197 0 299 -106t102 -304v-729zM905 1634q-157 93 -234 176q-78 -81 -229 -176h-203v27q189 189 256 301h357q31 -52 107.5 -141.5 t148.5 -159.5v-27h-203z" />
<glyph unicode="&#x126;" horiz-adv-x="1567" d="M1382 1268h185v-199h-185v-1069h-309v631h-579v-631h-310v1069h-184v199h184v194h310v-194h579v194h309v-194zM1073 889v180h-579v-180h579z" />
<glyph unicode="&#x127;" horiz-adv-x="1346" d="M1192 0h-305v592q0 242 -180 242q-127 0 -184.5 -87.5t-57.5 -281.5v-465h-305v1196h-156v199h156v161h305v-161h315v-199h-315v-18q0 -83 -14 -265h18q102 164 324 164q197 0 298 -105t101 -304v-668z" />
<glyph unicode="&#x128;" horiz-adv-x="678" d="M184 0v1462h310v-1462h-310zM175 1684q-31 0 -59.5 -26.5t-41.5 -80.5h-149q11 145 82.5 227t189.5 82q41 0 80.5 -16.5t78 -36t75.5 -35.5t73 -16q31 0 59.5 26t41.5 80h149q-11 -145 -83.5 -227t-188.5 -82q-41 0 -80.5 16.5t-78 36t-75.5 36t-73 16.5z" />
<glyph unicode="&#x129;" horiz-adv-x="625" d="M465 0h-305v1118h305v-1118zM149 1346q-31 0 -59.5 -26.5t-41.5 -80.5h-149q11 145 82.5 227t189.5 82q41 0 80.5 -16.5t78 -36t75.5 -35.5t73 -16q31 0 59.5 26t41.5 80h149q-11 -145 -83.5 -227t-188.5 -82q-41 0 -80.5 16.5t-78 36t-75.5 36t-73 16.5z" />
<glyph unicode="&#x12a;" horiz-adv-x="678" d="M184 0v1462h310v-1462h-310zM3 1790h678v-211h-678v211z" />
<glyph unicode="&#x12b;" horiz-adv-x="625" d="M465 0h-305v1118h305v-1118zM-23 1452h678v-211h-678v211z" />
<glyph unicode="&#x12c;" horiz-adv-x="678" d="M184 0v1462h310v-1462h-310zM734 1917q-12 -154 -122 -246t-276 -92q-174 0 -277.5 91t-111.5 247h170q4 -47 27.5 -74t66 -39t127.5 -12q206 0 222 125h174z" />
<glyph unicode="&#x12d;" horiz-adv-x="625" d="M465 0h-305v1118h305v-1118zM706 1579q-12 -154 -122 -246t-276 -92q-174 0 -277.5 91t-111.5 247h170q4 -47 27.5 -74t66 -39t127.5 -12q206 0 222 125h174z" />
<glyph unicode="&#x12e;" horiz-adv-x="678" d="M184 0v1462h310v-1462h-310zM321 -227q0 -42 22.5 -62t57.5 -20q55 0 115 18v-178q-82 -23 -156 -23q-113 0 -181.5 63.5t-68.5 166.5q0 67 38 126t142 136h179q-70 -66 -109 -120.5t-39 -106.5z" />
<glyph unicode="&#x12f;" horiz-adv-x="625" d="M147 1407q0 149 166 149t166 -149q0 -71 -41.5 -110.5t-124.5 -39.5q-166 0 -166 150zM465 0h-305v1118h305v-1118zM254 -227q0 -42 22.5 -62t57.5 -20q55 0 115 18v-178q-82 -23 -156 -23q-113 0 -181.5 63.5t-68.5 166.5q0 67 38 126t142 136h179q-70 -66 -109 -120.5 t-39 -106.5z" />
<glyph unicode="&#x130;" horiz-adv-x="678" d="M184 0v1462h310v-1462h-310zM172 1745q0 149 166 149t166 -149q0 -71 -41.5 -110.5t-124.5 -39.5q-166 0 -166 150z" />
<glyph unicode="&#x131;" horiz-adv-x="625" d="M465 0h-305v1118h305v-1118z" />
<glyph unicode="&#x132;" horiz-adv-x="1475" d="M184 0v1462h310v-1462h-310zM828 -430q-105 0 -183 22v258q80 -20 146 -20q102 0 146 63.5t44 198.5v1370h310v-1368q0 -256 -117 -390t-346 -134z" />
<glyph unicode="&#x133;" horiz-adv-x="1210" d="M147 1407q0 149 166 149t166 -149q0 -71 -41.5 -110.5t-124.5 -39.5q-166 0 -166 150zM465 0h-305v1118h305v-1118zM656 -492q-117 0 -201 25v240q70 -19 143 -19q77 0 112.5 43t35.5 127v1194h305v-1239q0 -178 -103 -274.5t-292 -96.5zM733 1407q0 149 166 149 t166 -149q0 -71 -41.5 -110.5t-124.5 -39.5q-166 0 -166 150z" />
<glyph unicode="&#x134;" horiz-adv-x="678" d="M31 -430q-105 0 -183 22v258q80 -20 146 -20q102 0 146 63.5t44 198.5v1370h310v-1368q0 -256 -117 -390t-346 -134zM574 1579q-157 93 -234 176q-78 -81 -229 -176h-203v27q189 189 256 301h357q31 -52 107.5 -141.5t148.5 -159.5v-27h-203z" />
<glyph unicode="&#x135;" horiz-adv-x="625" d="M70 -492q-117 0 -201 25v240q70 -19 143 -19q77 0 112.5 43t35.5 127v1194h305v-1239q0 -178 -103 -274.5t-292 -96.5zM540 1241q-157 93 -234 176q-78 -81 -229 -176h-203v27q189 189 256 301h357q31 -52 107.5 -141.5t148.5 -159.5v-27h-203z" />
<glyph unicode="&#x136;" horiz-adv-x="1360" d="M1360 0h-352l-383 616l-131 -94v-522h-310v1462h310v-669l122 172l396 497h344l-510 -647zM506 -426q15 49 34.5 143t27.5 158h282v-20q-75 -168 -166 -308h-178v27z" />
<glyph unicode="&#x137;" horiz-adv-x="1270" d="M453 608l133 170l313 340h344l-444 -485l471 -633h-352l-322 453l-131 -105v-348h-305v1556h305v-694l-16 -254h4zM467 -426q15 49 34.5 143t27.5 158h282v-20q-75 -168 -166 -308h-178v27z" />
<glyph unicode="&#x138;" horiz-adv-x="1270" d="M463 582l141 170l314 366h325l-440 -512l467 -606h-348l-314 426l-143 -90v-336h-305v1118h305v-293l-3 -161l-3 -82h4z" />
<glyph unicode="&#x139;" horiz-adv-x="1157" d="M184 0v1462h310v-1206h593v-256h-903zM267 1579v27q172 200 235 301h342v-21q-52 -52 -177.5 -154.5t-196.5 -152.5h-203z" />
<glyph unicode="&#x13a;" horiz-adv-x="625" d="M465 0h-305v1556h305v-1556zM179 1636v27q172 200 235 301h342v-21q-52 -52 -177.5 -154.5t-196.5 -152.5h-203z" />
<glyph unicode="&#x13b;" horiz-adv-x="1157" d="M184 0v1462h310v-1206h593v-256h-903zM424 -426q15 49 34.5 143t27.5 158h282v-20q-75 -168 -166 -308h-178v27z" />
<glyph unicode="&#x13c;" horiz-adv-x="625" d="M465 0h-305v1556h305v-1556zM99 -426q15 49 34.5 143t27.5 158h282v-20q-75 -168 -166 -308h-178v27z" />
<glyph unicode="&#x13d;" horiz-adv-x="1157" d="M184 0v1462h310v-1206h593v-256h-903zM723 1162q15 49 34.5 143t27.5 158h282v-20q-80 -176 -166 -307h-178v26z" />
<glyph unicode="&#x13e;" horiz-adv-x="625" d="M465 0h-305v1556h305v-1556zM557 1255q15 49 34.5 143t27.5 158h282v-20q-80 -176 -166 -307h-178v26z" />
<glyph unicode="&#x13f;" horiz-adv-x="1157" d="M184 0v1462h310v-1206h593v-256h-903zM706 751q0 149 166 149t166 -149q0 -71 -41.5 -110.5t-124.5 -39.5q-166 0 -166 150z" />
<glyph unicode="&#x140;" horiz-adv-x="877" d="M465 0h-305v1556h305v-1556zM587 695q0 149 166 149t166 -149q0 -71 -41.5 -110.5t-124.5 -39.5q-166 0 -166 150z" />
<glyph unicode="&#x141;" horiz-adv-x="1157" d="M184 0v492l-69 -41l-113 196l182 111v704h310v-516l143 88l117 -196l-260 -158v-424h593v-256h-903z" />
<glyph unicode="&#x142;" horiz-adv-x="676" d="M489 930l70 43l117 -197l-187 -112v-664h-305v477l-71 -43l-113 197l184 112v813h305v-626z" />
<glyph unicode="&#x143;" horiz-adv-x="1665" d="M1481 0h-394l-636 1106h-9q19 -293 19 -418v-688h-277v1462h391l635 -1095h7q-15 285 -15 403v692h279v-1462zM656 1579v27q172 200 235 301h342v-21q-52 -52 -177.5 -154.5t-196.5 -152.5h-203z" />
<glyph unicode="&#x144;" horiz-adv-x="1346" d="M1192 0h-305v653q0 121 -43 181.5t-137 60.5q-128 0 -185 -85.5t-57 -283.5v-526h-305v1118h233l41 -143h17q51 81 140.5 122.5t203.5 41.5q195 0 296 -105.5t101 -304.5v-729zM502 1241v27q172 200 235 301h342v-21q-52 -52 -177.5 -154.5t-196.5 -152.5h-203z" />
<glyph unicode="&#x145;" horiz-adv-x="1665" d="M1481 0h-394l-636 1106h-9q19 -293 19 -418v-688h-277v1462h391l635 -1095h7q-15 285 -15 403v692h279v-1462zM598 -426q15 49 34.5 143t27.5 158h282v-20q-75 -168 -166 -308h-178v27z" />
<glyph unicode="&#x146;" horiz-adv-x="1346" d="M1192 0h-305v653q0 121 -43 181.5t-137 60.5q-128 0 -185 -85.5t-57 -283.5v-526h-305v1118h233l41 -143h17q51 81 140.5 122.5t203.5 41.5q195 0 296 -105.5t101 -304.5v-729zM467 -426q15 49 34.5 143t27.5 158h282v-20q-75 -168 -166 -308h-178v27z" />
<glyph unicode="&#x147;" horiz-adv-x="1665" d="M1481 0h-394l-636 1106h-9q19 -293 19 -418v-688h-277v1462h391l635 -1095h7q-15 285 -15 403v692h279v-1462zM1293 1907v-27q-84 -84 -154.5 -167.5t-101.5 -133.5h-357q-29 47 -83 112.5t-173 188.5v27h203q147 -93 229 -176q84 87 234 176h203z" />
<glyph unicode="&#x148;" horiz-adv-x="1346" d="M1192 0h-305v653q0 121 -43 181.5t-137 60.5q-128 0 -185 -85.5t-57 -283.5v-526h-305v1118h233l41 -143h17q51 81 140.5 122.5t203.5 41.5q195 0 296 -105.5t101 -304.5v-729zM1133 1569v-27q-84 -84 -154.5 -167.5t-101.5 -133.5h-357q-29 47 -83 112.5t-173 188.5v27 h203q147 -93 229 -176q84 87 234 176h203z" />
<glyph unicode="&#x149;" horiz-adv-x="1595" d="M1442 0h-305v653q0 121 -43 181.5t-137 60.5q-128 0 -185 -85.5t-57 -283.5v-526h-305v1118h233l41 -143h17q51 81 140.5 122.5t203.5 41.5q195 0 296 -105.5t101 -304.5v-729zM387 1462l14 -22q-50 -197 -176 -479h-219q69 296 100 501h281z" />
<glyph unicode="&#x14a;" horiz-adv-x="1665" d="M1016 -430q-114 0 -197 22v258q93 -20 166 -20q109 0 168 45.5t68 128.5l-770 1102h-9q19 -293 19 -418v-688h-277v1462h391l635 -891h7l-8 151q-7 109 -7 253v487h279v-1462q0 -207 -120.5 -318.5t-344.5 -111.5z" />
<glyph unicode="&#x14b;" horiz-adv-x="1346" d="M829 -492q-107 0 -184 25v240q59 -19 119 -19q123 0 123 170v752q0 219 -180 219q-128 0 -185 -85.5t-57 -283.5v-526h-305v1118h233l41 -143h19q50 79 138 121.5t204 42.5q195 0 296 -105.5t101 -304.5v-850q0 -179 -94 -275t-269 -96z" />
<glyph unicode="&#x14c;" horiz-adv-x="1630" d="M1511 733q0 -363 -180 -558t-516 -195t-516 195t-180 560t180.5 557.5t517.5 192.5t515.5 -194t178.5 -558zM444 733q0 -245 93 -369t278 -124q371 0 371 493q0 494 -369 494q-185 0 -279 -124.5t-94 -369.5zM478 1790h678v-211h-678v211z" />
<glyph unicode="&#x14d;" horiz-adv-x="1268" d="M403 561q0 -166 54.5 -251t177.5 -85q122 0 175.5 84.5t53.5 251.5q0 166 -54 249t-177 83q-122 0 -176 -82.5t-54 -249.5zM1176 561q0 -273 -144 -427t-401 -154q-161 0 -284 70.5t-189 202.5t-66 308q0 274 143 426t402 152q161 0 284 -70t189 -201t66 -307zM295 1452 h678v-211h-678v211z" />
<glyph unicode="&#x14e;" horiz-adv-x="1630" d="M1511 733q0 -363 -180 -558t-516 -195t-516 195t-180 560t180.5 557.5t517.5 192.5t515.5 -194t178.5 -558zM444 733q0 -245 93 -369t278 -124q371 0 371 493q0 494 -369 494q-185 0 -279 -124.5t-94 -369.5zM1211 1917q-12 -154 -122 -246t-276 -92q-174 0 -277.5 91 t-111.5 247h170q4 -47 27.5 -74t66 -39t127.5 -12q206 0 222 125h174z" />
<glyph unicode="&#x14f;" horiz-adv-x="1268" d="M403 561q0 -166 54.5 -251t177.5 -85q122 0 175.5 84.5t53.5 251.5q0 166 -54 249t-177 83q-122 0 -176 -82.5t-54 -249.5zM1176 561q0 -273 -144 -427t-401 -154q-161 0 -284 70.5t-189 202.5t-66 308q0 274 143 426t402 152q161 0 284 -70t189 -201t66 -307zM1026 1579 q-12 -154 -122 -246t-276 -92q-174 0 -277.5 91t-111.5 247h170q4 -47 27.5 -74t66 -39t127.5 -12q206 0 222 125h174z" />
<glyph unicode="&#x150;" horiz-adv-x="1630" d="M1511 733q0 -363 -180 -558t-516 -195t-516 195t-180 560t180.5 557.5t517.5 192.5t515.5 -194t178.5 -558zM444 733q0 -245 93 -369t278 -124q371 0 371 493q0 494 -369 494q-185 0 -279 -124.5t-94 -369.5zM478 1579v27q62 85 117.5 172.5t76.5 128.5h301v-21 q-32 -53 -146 -153t-188 -154h-161zM875 1579v27q139 192 195 301h301v-21q-25 -43 -125.5 -134.5t-208.5 -172.5h-162z" />
<glyph unicode="&#x151;" horiz-adv-x="1268" d="M403 561q0 -166 54.5 -251t177.5 -85q122 0 175.5 84.5t53.5 251.5q0 166 -54 249t-177 83q-122 0 -176 -82.5t-54 -249.5zM1176 561q0 -273 -144 -427t-401 -154q-161 0 -284 70.5t-189 202.5t-66 308q0 274 143 426t402 152q161 0 284 -70t189 -201t66 -307zM279 1241 v27q62 85 117.5 172.5t76.5 128.5h301v-21q-32 -53 -146 -153t-188 -154h-161zM676 1241v27q139 192 195 301h301v-21q-25 -43 -125.5 -134.5t-208.5 -172.5h-162z" />
<glyph unicode="&#x152;" horiz-adv-x="1993" d="M1872 0h-873q-38 -9 -109 -14.5t-116 -5.5q-319 0 -487 197t-168 558q0 363 169.5 556.5t487.5 193.5q61 0 127 -7t101 -16h868v-254h-563v-321h526v-254h-526v-377h563v-256zM776 1227q-166 0 -252 -125.5t-86 -368.5q0 -244 86 -368.5t250 -124.5q65 0 126 10.5 t99 28.5v907q-35 19 -101.5 30t-121.5 11z" />
<glyph unicode="&#x153;" horiz-adv-x="2003" d="M1446 -20q-271 0 -420 155q-141 -155 -391 -155q-162 0 -286 70t-190.5 202t-66.5 309q0 277 141.5 427.5t399.5 150.5q112 0 212 -39.5t171 -116.5q144 156 383 156q244 0 380 -135t136 -373v-148h-746v-8q7 -127 81.5 -197.5t207.5 -70.5q107 0 200 21t193 67v-236 q-81 -39 -175.5 -59t-229.5 -20zM403 561q0 -166 54.5 -251t177.5 -85q122 0 175.5 84.5t53.5 251.5q0 166 -54 249t-177 83q-122 0 -176 -82.5t-54 -249.5zM1405 922q-94 0 -156 -57.5t-71 -178.5h450q-2 111 -60.5 173.5t-162.5 62.5z" />
<glyph unicode="&#x154;" horiz-adv-x="1352" d="M494 813h100q147 0 217 49t70 154q0 104 -71.5 148t-221.5 44h-94v-395zM494 561v-561h-310v1462h426q298 0 441 -108.5t143 -329.5q0 -129 -71 -229.5t-201 -157.5q330 -493 430 -637h-344l-349 561h-165zM477 1579v27q172 200 235 301h342v-21q-52 -52 -177.5 -154.5 t-196.5 -152.5h-203z" />
<glyph unicode="&#x155;" horiz-adv-x="930" d="M784 1139q62 0 103 -9l-23 -286q-37 10 -90 10q-146 0 -227.5 -75t-81.5 -210v-569h-305v1118h231l45 -188h15q52 94 140.5 151.5t192.5 57.5zM338 1241v27q172 200 235 301h342v-21q-52 -52 -177.5 -154.5t-196.5 -152.5h-203z" />
<glyph unicode="&#x156;" horiz-adv-x="1352" d="M494 813h100q147 0 217 49t70 154q0 104 -71.5 148t-221.5 44h-94v-395zM494 561v-561h-310v1462h426q298 0 441 -108.5t143 -329.5q0 -129 -71 -229.5t-201 -157.5q330 -493 430 -637h-344l-349 561h-165zM530 -426q15 49 34.5 143t27.5 158h282v-20q-75 -168 -166 -308 h-178v27z" />
<glyph unicode="&#x157;" horiz-adv-x="930" d="M784 1139q62 0 103 -9l-23 -286q-37 10 -90 10q-146 0 -227.5 -75t-81.5 -210v-569h-305v1118h231l45 -188h15q52 94 140.5 151.5t192.5 57.5zM99 -426q15 49 34.5 143t27.5 158h282v-20q-75 -168 -166 -308h-178v27z" />
<glyph unicode="&#x158;" horiz-adv-x="1352" d="M494 813h100q147 0 217 49t70 154q0 104 -71.5 148t-221.5 44h-94v-395zM494 561v-561h-310v1462h426q298 0 441 -108.5t143 -329.5q0 -129 -71 -229.5t-201 -157.5q330 -493 430 -637h-344l-349 561h-165zM1106 1907v-27q-84 -84 -154.5 -167.5t-101.5 -133.5h-357 q-29 47 -83 112.5t-173 188.5v27h203q147 -93 229 -176q84 87 234 176h203z" />
<glyph unicode="&#x159;" horiz-adv-x="930" d="M784 1139q62 0 103 -9l-23 -286q-37 10 -90 10q-146 0 -227.5 -75t-81.5 -210v-569h-305v1118h231l45 -188h15q52 94 140.5 151.5t192.5 57.5zM952 1569v-27q-84 -84 -154.5 -167.5t-101.5 -133.5h-357q-29 47 -83 112.5t-173 188.5v27h203q147 -93 229 -176 q84 87 234 176h203z" />
<glyph unicode="&#x15a;" horiz-adv-x="1128" d="M1047 406q0 -198 -142.5 -312t-396.5 -114q-234 0 -414 88v288q148 -66 250.5 -93t187.5 -27q102 0 156.5 39t54.5 116q0 43 -24 76.5t-70.5 64.5t-189.5 99q-134 63 -201 121t-107 135t-40 180q0 194 131.5 305t363.5 111q114 0 217.5 -27t216.5 -76l-100 -241 q-117 48 -193.5 67t-150.5 19q-88 0 -135 -41t-47 -107q0 -41 19 -71.5t60.5 -59t196.5 -102.5q205 -98 281 -196.5t76 -241.5zM410 1579v27q172 200 235 301h342v-21q-52 -52 -177.5 -154.5t-196.5 -152.5h-203z" />
<glyph unicode="&#x15b;" horiz-adv-x="1018" d="M940 332q0 -172 -119.5 -262t-357.5 -90q-122 0 -208 16.5t-161 48.5v252q85 -40 191.5 -67t187.5 -27q166 0 166 96q0 36 -22 58.5t-76 51t-144 66.5q-129 54 -189.5 100t-88 105.5t-27.5 146.5q0 149 115.5 230.5t327.5 81.5q202 0 393 -88l-92 -220q-84 36 -157 59 t-149 23q-135 0 -135 -73q0 -41 43.5 -71t190.5 -89q131 -53 192 -99t90 -106t29 -143zM342 1241v27q172 200 235 301h342v-21q-52 -52 -177.5 -154.5t-196.5 -152.5h-203z" />
<glyph unicode="&#x15c;" horiz-adv-x="1128" d="M1047 406q0 -198 -142.5 -312t-396.5 -114q-234 0 -414 88v288q148 -66 250.5 -93t187.5 -27q102 0 156.5 39t54.5 116q0 43 -24 76.5t-70.5 64.5t-189.5 99q-134 63 -201 121t-107 135t-40 180q0 194 131.5 305t363.5 111q114 0 217.5 -27t216.5 -76l-100 -241 q-117 48 -193.5 67t-150.5 19q-88 0 -135 -41t-47 -107q0 -41 19 -71.5t60.5 -59t196.5 -102.5q205 -98 281 -196.5t76 -241.5zM830 1579q-157 93 -234 176q-78 -81 -229 -176h-203v27q189 189 256 301h357q31 -52 107.5 -141.5t148.5 -159.5v-27h-203z" />
<glyph unicode="&#x15d;" horiz-adv-x="1018" d="M940 332q0 -172 -119.5 -262t-357.5 -90q-122 0 -208 16.5t-161 48.5v252q85 -40 191.5 -67t187.5 -27q166 0 166 96q0 36 -22 58.5t-76 51t-144 66.5q-129 54 -189.5 100t-88 105.5t-27.5 146.5q0 149 115.5 230.5t327.5 81.5q202 0 393 -88l-92 -220q-84 36 -157 59 t-149 23q-135 0 -135 -73q0 -41 43.5 -71t190.5 -89q131 -53 192 -99t90 -106t29 -143zM759 1241q-157 93 -234 176q-78 -81 -229 -176h-203v27q189 189 256 301h357q31 -52 107.5 -141.5t148.5 -159.5v-27h-203z" />
<glyph unicode="&#x15e;" horiz-adv-x="1128" d="M1047 406q0 -198 -142.5 -312t-396.5 -114q-234 0 -414 88v288q148 -66 250.5 -93t187.5 -27q102 0 156.5 39t54.5 116q0 43 -24 76.5t-70.5 64.5t-189.5 99q-134 63 -201 121t-107 135t-40 180q0 194 131.5 305t363.5 111q114 0 217.5 -27t216.5 -76l-100 -241 q-117 48 -193.5 67t-150.5 19q-88 0 -135 -41t-47 -107q0 -41 19 -71.5t60.5 -59t196.5 -102.5q205 -98 281 -196.5t76 -241.5zM772 -250q0 -128 -75.5 -185t-233.5 -57q-78 0 -146 21v168q27 -7 72.5 -14t70.5 -7q72 0 72 62q0 83 -166 108l78 154h193l-27 -61 q74 -24 118 -74.5t44 -114.5z" />
<glyph unicode="&#x15f;" horiz-adv-x="1018" d="M940 332q0 -172 -119.5 -262t-357.5 -90q-122 0 -208 16.5t-161 48.5v252q85 -40 191.5 -67t187.5 -27q166 0 166 96q0 36 -22 58.5t-76 51t-144 66.5q-129 54 -189.5 100t-88 105.5t-27.5 146.5q0 149 115.5 230.5t327.5 81.5q202 0 393 -88l-92 -220q-84 36 -157 59 t-149 23q-135 0 -135 -73q0 -41 43.5 -71t190.5 -89q131 -53 192 -99t90 -106t29 -143zM719 -250q0 -128 -75.5 -185t-233.5 -57q-78 0 -146 21v168q27 -7 72.5 -14t70.5 -7q72 0 72 62q0 83 -166 108l78 154h193l-27 -61q74 -24 118 -74.5t44 -114.5z" />
<glyph unicode="&#x160;" horiz-adv-x="1128" d="M1047 406q0 -198 -142.5 -312t-396.5 -114q-234 0 -414 88v288q148 -66 250.5 -93t187.5 -27q102 0 156.5 39t54.5 116q0 43 -24 76.5t-70.5 64.5t-189.5 99q-134 63 -201 121t-107 135t-40 180q0 194 131.5 305t363.5 111q114 0 217.5 -27t216.5 -76l-100 -241 q-117 48 -193.5 67t-150.5 19q-88 0 -135 -41t-47 -107q0 -41 19 -71.5t60.5 -59t196.5 -102.5q205 -98 281 -196.5t76 -241.5zM1033 1907v-27q-84 -84 -154.5 -167.5t-101.5 -133.5h-357q-29 47 -83 112.5t-173 188.5v27h203q147 -93 229 -176q84 87 234 176h203z" />
<glyph unicode="&#x161;" horiz-adv-x="1018" d="M940 332q0 -172 -119.5 -262t-357.5 -90q-122 0 -208 16.5t-161 48.5v252q85 -40 191.5 -67t187.5 -27q166 0 166 96q0 36 -22 58.5t-76 51t-144 66.5q-129 54 -189.5 100t-88 105.5t-27.5 146.5q0 149 115.5 230.5t327.5 81.5q202 0 393 -88l-92 -220q-84 36 -157 59 t-149 23q-135 0 -135 -73q0 -41 43.5 -71t190.5 -89q131 -53 192 -99t90 -106t29 -143zM972 1569v-27q-84 -84 -154.5 -167.5t-101.5 -133.5h-357q-29 47 -83 112.5t-173 188.5v27h203q147 -93 229 -176q84 87 234 176h203z" />
<glyph unicode="&#x162;" horiz-adv-x="1186" d="M748 0h-310v1204h-397v258h1104v-258h-397v-1204zM830 -250q0 -128 -75.5 -185t-233.5 -57q-78 0 -146 21v168q27 -7 72.5 -14t70.5 -7q72 0 72 62q0 83 -166 108l78 154h193l-27 -61q74 -24 118 -74.5t44 -114.5z" />
<glyph unicode="&#x163;" horiz-adv-x="889" d="M631 223q80 0 192 35v-227q-114 -51 -280 -51q-183 0 -266.5 92.5t-83.5 277.5v539h-146v129l168 102l88 236h195v-238h313v-229h-313v-539q0 -65 36.5 -96t96.5 -31zM740 -250q0 -128 -75.5 -185t-233.5 -57q-78 0 -146 21v168q27 -7 72.5 -14t70.5 -7q72 0 72 62 q0 83 -166 108l78 154h193l-27 -61q74 -24 118 -74.5t44 -114.5z" />
<glyph unicode="&#x164;" horiz-adv-x="1186" d="M748 0h-310v1204h-397v258h1104v-258h-397v-1204zM1029 1907v-27q-84 -84 -154.5 -167.5t-101.5 -133.5h-357q-29 47 -83 112.5t-173 188.5v27h203q147 -93 229 -176q84 87 234 176h203z" />
<glyph unicode="&#x165;" horiz-adv-x="889" d="M631 223q80 0 192 35v-227q-114 -51 -280 -51q-183 0 -266.5 92.5t-83.5 277.5v539h-146v129l168 102l88 236h195v-238h313v-229h-313v-539q0 -65 36.5 -96t96.5 -31zM620 1275q15 49 34.5 143t27.5 158h282v-20q-80 -176 -166 -307h-178v26z" />
<glyph unicode="&#x166;" horiz-adv-x="1186" d="M748 0h-310v596h-248v254h248v354h-397v258h1104v-258h-397v-354h247v-254h-247v-596z" />
<glyph unicode="&#x167;" horiz-adv-x="889" d="M631 223q80 0 192 35v-227q-52 -25 -126.5 -38t-147.5 -13q-186 0 -271 91t-85 279v148h-127v198h127v193h-146v129l168 102l88 236h195v-238h313v-229h-313v-193h278v-198h-278v-148q0 -65 36.5 -96t96.5 -31z" />
<glyph unicode="&#x168;" horiz-adv-x="1548" d="M1374 1462v-946q0 -162 -72.5 -284t-209.5 -187t-324 -65q-282 0 -438 144.5t-156 395.5v942h309v-895q0 -169 68 -248t225 -79q152 0 220.5 79.5t68.5 249.5v893h309zM613 1684q-31 0 -59.5 -26.5t-41.5 -80.5h-149q11 145 82.5 227t189.5 82q41 0 80.5 -16.5t78 -36 t75.5 -35.5t73 -16q31 0 59.5 26t41.5 80h149q-11 -145 -83.5 -227t-188.5 -82q-41 0 -80.5 16.5t-78 36t-75.5 36t-73 16.5z" />
<glyph unicode="&#x169;" horiz-adv-x="1346" d="M952 0l-41 143h-16q-49 -78 -139 -120.5t-205 -42.5q-197 0 -297 105.5t-100 303.5v729h305v-653q0 -121 43 -181.5t137 -60.5q128 0 185 85.5t57 283.5v526h305v-1118h-234zM506 1346q-31 0 -59.5 -26.5t-41.5 -80.5h-149q11 145 82.5 227t189.5 82q41 0 80.5 -16.5 t78 -36t75.5 -35.5t73 -16q31 0 59.5 26t41.5 80h149q-11 -145 -83.5 -227t-188.5 -82q-41 0 -80.5 16.5t-78 36t-75.5 36t-73 16.5z" />
<glyph unicode="&#x16a;" horiz-adv-x="1548" d="M1374 1462v-946q0 -162 -72.5 -284t-209.5 -187t-324 -65q-282 0 -438 144.5t-156 395.5v942h309v-895q0 -169 68 -248t225 -79q152 0 220.5 79.5t68.5 249.5v893h309zM437 1790h678v-211h-678v211z" />
<glyph unicode="&#x16b;" horiz-adv-x="1346" d="M952 0l-41 143h-16q-49 -78 -139 -120.5t-205 -42.5q-197 0 -297 105.5t-100 303.5v729h305v-653q0 -121 43 -181.5t137 -60.5q128 0 185 85.5t57 283.5v526h305v-1118h-234zM330 1452h678v-211h-678v211z" />
<glyph unicode="&#x16c;" horiz-adv-x="1548" d="M1374 1462v-946q0 -162 -72.5 -284t-209.5 -187t-324 -65q-282 0 -438 144.5t-156 395.5v942h309v-895q0 -169 68 -248t225 -79q152 0 220.5 79.5t68.5 249.5v893h309zM1168 1917q-12 -154 -122 -246t-276 -92q-174 0 -277.5 91t-111.5 247h170q4 -47 27.5 -74t66 -39 t127.5 -12q206 0 222 125h174z" />
<glyph unicode="&#x16d;" horiz-adv-x="1346" d="M952 0l-41 143h-16q-49 -78 -139 -120.5t-205 -42.5q-197 0 -297 105.5t-100 303.5v729h305v-653q0 -121 43 -181.5t137 -60.5q128 0 185 85.5t57 283.5v526h305v-1118h-234zM1063 1579q-12 -154 -122 -246t-276 -92q-174 0 -277.5 91t-111.5 247h170q4 -47 27.5 -74 t66 -39t127.5 -12q206 0 222 125h174z" />
<glyph unicode="&#x16e;" horiz-adv-x="1548" d="M1374 1462v-946q0 -162 -72.5 -284t-209.5 -187t-324 -65q-282 0 -438 144.5t-156 395.5v942h309v-895q0 -169 68 -248t225 -79q152 0 220.5 79.5t68.5 249.5v893h309zM1026 1817q0 -108 -71 -174t-183 -66t-180 64t-68 174q0 108 67.5 172.5t180.5 64.5q110 0 182 -66 t72 -169zM868 1815q0 45 -27 70.5t-69 25.5t-69 -25.5t-27 -70.5t24 -71t72 -26q42 0 69 26t27 71z" />
<glyph unicode="&#x16f;" horiz-adv-x="1346" d="M952 0l-41 143h-16q-49 -78 -139 -120.5t-205 -42.5q-197 0 -297 105.5t-100 303.5v729h305v-653q0 -121 43 -181.5t137 -60.5q128 0 185 85.5t57 283.5v526h305v-1118h-234zM920 1479q0 -108 -71 -174t-183 -66t-180 64t-68 174q0 108 67.5 172.5t180.5 64.5 q110 0 182 -66t72 -169zM762 1477q0 45 -27 70.5t-69 25.5t-69 -25.5t-27 -70.5t24 -71t72 -26q42 0 69 26t27 71z" />
<glyph unicode="&#x170;" horiz-adv-x="1548" d="M1374 1462v-946q0 -162 -72.5 -284t-209.5 -187t-324 -65q-282 0 -438 144.5t-156 395.5v942h309v-895q0 -169 68 -248t225 -79q152 0 220.5 79.5t68.5 249.5v893h309zM441 1579v27q62 85 117.5 172.5t76.5 128.5h301v-21q-32 -53 -146 -153t-188 -154h-161zM838 1579v27 q139 192 195 301h301v-21q-25 -43 -125.5 -134.5t-208.5 -172.5h-162z" />
<glyph unicode="&#x171;" horiz-adv-x="1346" d="M952 0l-41 143h-16q-49 -78 -139 -120.5t-205 -42.5q-197 0 -297 105.5t-100 303.5v729h305v-653q0 -121 43 -181.5t137 -60.5q128 0 185 85.5t57 283.5v526h305v-1118h-234zM344 1241v27q62 85 117.5 172.5t76.5 128.5h301v-21q-32 -53 -146 -153t-188 -154h-161z M741 1241v27q139 192 195 301h301v-21q-25 -43 -125.5 -134.5t-208.5 -172.5h-162z" />
<glyph unicode="&#x172;" horiz-adv-x="1548" d="M1374 1462v-946q0 -162 -72.5 -284t-209.5 -187t-324 -65q-282 0 -438 144.5t-156 395.5v942h309v-895q0 -169 68 -248t225 -79q152 0 220.5 79.5t68.5 249.5v893h309zM805 -227q0 -42 22.5 -62t57.5 -20q55 0 115 18v-178q-82 -23 -156 -23q-113 0 -181.5 63.5 t-68.5 166.5q0 67 38 126t142 136h179q-70 -66 -109 -120.5t-39 -106.5z" />
<glyph unicode="&#x173;" horiz-adv-x="1346" d="M952 0l-41 143h-16q-49 -78 -139 -120.5t-205 -42.5q-197 0 -297 105.5t-100 303.5v729h305v-653q0 -121 43 -181.5t137 -60.5q128 0 185 85.5t57 283.5v526h305v-1118h-234zM981 -227q0 -42 22.5 -62t57.5 -20q55 0 115 18v-178q-82 -23 -156 -23q-113 0 -181.5 63.5 t-68.5 166.5q0 67 38 126t142 136h179q-70 -66 -109 -120.5t-39 -106.5z" />
<glyph unicode="&#x174;" horiz-adv-x="1980" d="M1608 0h-353l-198 768q-11 41 -37.5 169.5t-30.5 172.5q-6 -54 -30 -173.5t-37 -170.5l-197 -766h-352l-373 1462h305l187 -798q49 -221 71 -383q6 57 27.5 176.5t40.5 185.5l213 819h293l213 -819q14 -55 35 -168t32 -194q10 78 32 194.5t40 188.5l186 798h305z M1221 1579q-157 93 -234 176q-78 -81 -229 -176h-203v27q189 189 256 301h357q31 -52 107.5 -141.5t148.5 -159.5v-27h-203z" />
<glyph unicode="&#x175;" horiz-adv-x="1753" d="M1079 0l-86 391l-116 494h-7l-204 -885h-328l-318 1118h304l129 -495q31 -133 63 -367h6q4 76 35 241l16 85l138 536h336l131 -536q4 -22 12.5 -65t16.5 -91.5t14.5 -95t7.5 -74.5h6q9 72 32 197.5t33 169.5l134 495h299l-322 -1118h-332zM1108 1241q-157 93 -234 176 q-78 -81 -229 -176h-203v27q189 189 256 301h357q31 -52 107.5 -141.5t148.5 -159.5v-27h-203z" />
<glyph unicode="&#x176;" horiz-adv-x="1278" d="M639 860l305 602h334l-485 -893v-569h-308v559l-485 903h336zM872 1579q-157 93 -234 176q-78 -81 -229 -176h-203v27q189 189 256 301h357q31 -52 107.5 -141.5t148.5 -159.5v-27h-203z" />
<glyph unicode="&#x177;" horiz-adv-x="1165" d="M0 1118h334l211 -629q27 -82 37 -194h6q11 103 43 194l207 629h327l-473 -1261q-65 -175 -185.5 -262t-281.5 -87q-79 0 -155 17v242q55 -13 120 -13q81 0 141.5 49.5t94.5 149.5l18 55zM816 1241q-157 93 -234 176q-78 -81 -229 -176h-203v27q189 189 256 301h357 q31 -52 107.5 -141.5t148.5 -159.5v-27h-203z" />
<glyph unicode="&#x178;" horiz-adv-x="1278" d="M639 860l305 602h334l-485 -893v-569h-308v559l-485 903h336zM297 1743q0 65 37.5 100t101.5 35q66 0 103.5 -37t37.5 -98q0 -60 -38 -96.5t-103 -36.5q-64 0 -101.5 35t-37.5 98zM700 1743q0 70 40.5 102.5t100.5 32.5q65 0 103.5 -36t38.5 -99q0 -61 -39 -97t-103 -36 q-60 0 -100.5 32.5t-40.5 100.5z" />
<glyph unicode="&#x179;" horiz-adv-x="1186" d="M1137 0h-1088v201l701 1005h-682v256h1050v-200l-700 -1006h719v-256zM410 1579v27q172 200 235 301h342v-21q-52 -52 -177.5 -154.5t-196.5 -152.5h-203z" />
<glyph unicode="&#x17a;" horiz-adv-x="999" d="M938 0h-883v180l518 705h-487v233h834v-198l-504 -687h522v-233zM352 1241v27q172 200 235 301h342v-21q-52 -52 -177.5 -154.5t-196.5 -152.5h-203z" />
<glyph unicode="&#x17b;" horiz-adv-x="1186" d="M1137 0h-1088v201l701 1005h-682v256h1050v-200l-700 -1006h719v-256zM426 1745q0 149 166 149t166 -149q0 -71 -41.5 -110.5t-124.5 -39.5q-166 0 -166 150z" />
<glyph unicode="&#x17c;" horiz-adv-x="999" d="M938 0h-883v180l518 705h-487v233h834v-198l-504 -687h522v-233zM329 1407q0 149 166 149t166 -149q0 -71 -41.5 -110.5t-124.5 -39.5q-166 0 -166 150z" />
<glyph unicode="&#x17d;" horiz-adv-x="1186" d="M1137 0h-1088v201l701 1005h-682v256h1050v-200l-700 -1006h719v-256zM1040 1907v-27q-84 -84 -154.5 -167.5t-101.5 -133.5h-357q-29 47 -83 112.5t-173 188.5v27h203q147 -93 229 -176q84 87 234 176h203z" />
<glyph unicode="&#x17e;" horiz-adv-x="999" d="M938 0h-883v180l518 705h-487v233h834v-198l-504 -687h522v-233zM952 1569v-27q-84 -84 -154.5 -167.5t-101.5 -133.5h-357q-29 47 -83 112.5t-173 188.5v27h203q147 -93 229 -176q84 87 234 176h203z" />
<glyph unicode="&#x17f;" horiz-adv-x="784" d="M592 1325q-127 0 -127 -137v-1188h-305v1200q0 191 94 279t299 88q158 0 278 -47l-71 -224q-92 29 -168 29z" />
<glyph unicode="&#x192;" d="M745 -121q0 -177 -94 -274t-270 -97q-107 0 -184 25v240q59 -19 118 -19q125 0 125 170v881h-168v147l168 82v82q0 189 87.5 278t281.5 89q150 0 262 -47l-72 -224q-82 29 -145 29q-109 0 -109 -137v-70h228v-229h-228v-926z" />
<glyph unicode="&#x1a0;" horiz-adv-x="1690" d="M1511 733q0 -363 -180 -558t-516 -195t-516 195t-180 560q0 363 181 556.5t519 193.5q346 0 524 -203q93 61 93 274h301l14 -22q-36 -177 -107 -277.5t-194 -150.5q61 -159 61 -373zM444 733q0 -245 93 -369t278 -124q371 0 371 493q0 494 -369 494q-185 0 -279 -124.5 t-94 -369.5zM1630 0z" />
<glyph unicode="&#x1a1;" horiz-adv-x="1391" d="M1176 561q0 -273 -144 -427t-401 -154q-161 0 -284 70.5t-189 202.5t-66 308q0 274 143 426t402 152q112 0 212 -34.5t171 -103.5q149 45 149 285h301l15 -22q-27 -134 -70.5 -212.5t-114.5 -132t-176 -79.5q52 -125 52 -279zM403 561q0 -166 54.5 -251t177.5 -85 q122 0 175.5 84.5t53.5 251.5q0 166 -54 249t-177 83q-122 0 -176 -82.5t-54 -249.5zM1268 0z" />
<glyph unicode="&#x1af;" horiz-adv-x="1812" d="M1374 1462v-188q74 26 109 101t35 181h301l14 -22q-32 -154 -85.5 -237.5t-144.5 -135t-229 -71.5v-574q0 -162 -72.5 -284t-209.5 -187t-324 -65q-282 0 -438 144.5t-156 395.5v942h309v-919q0 -156 70.5 -229.5t222.5 -73.5t220.5 76.5t68.5 228.5v917h309zM1548 0z " />
<glyph unicode="&#x1b0;" horiz-adv-x="1556" d="M952 0l-41 143h-18q-48 -77 -137.5 -120t-204.5 -43q-197 0 -297 105.5t-100 303.5v729h305v-653q0 -121 43 -181.5t137 -60.5q128 0 185 85.5t57 283.5v526h305v-117q71 22 110 95.5t39 189.5h301l15 -22q-32 -156 -86 -240t-145.5 -135t-233.5 -72v-817h-234zM1346 0z " />
<glyph unicode="&#x1f0;" horiz-adv-x="625" d="M70 -492q-117 0 -201 25v240q70 -19 143 -19q77 0 112.5 43t35.5 127v1194h305v-1239q0 -178 -103 -274.5t-292 -96.5zM745 1569v-27q-84 -84 -154.5 -167.5t-101.5 -133.5h-357q-29 47 -83 112.5t-173 188.5v27h203q147 -93 229 -176q84 87 234 176h203z" />
<glyph unicode="&#x1fa;" horiz-adv-x="1413" d="M958 1462q0 -85 -47 -147l502 -1315h-332l-106 330h-535l-108 -330h-332l500 1315q-43 58 -43 145q0 110 68 174t180 64q109 0 181 -64.5t72 -171.5zM909 590l-102 289q-86 230 -100 299q-19 -71 -87 -267l-112 -321h401zM584 1753v16q46 42 99 102t75 91h342v-12 q-23 -26 -114.5 -84t-199.5 -113h-202zM801 1460q0 45 -27 70.5t-69 25.5t-69.5 -25.5t-27.5 -70.5q0 -92 86 -96h19q38 2 63 27.5t25 68.5z" />
<glyph unicode="&#x1fb;" horiz-adv-x="1237" d="M870 0l-59 152h-8q-77 -97 -158.5 -134.5t-212.5 -37.5q-161 0 -253.5 92t-92.5 262q0 178 124.5 262.5t375.5 93.5l194 6v49q0 170 -174 170q-134 0 -315 -81l-101 206q193 101 428 101q225 0 345 -98t120 -298v-745h-213zM780 518l-118 -4q-133 -4 -198 -48t-65 -134 q0 -129 148 -129q106 0 169.5 61t63.5 162v92zM471 1753v16q46 42 99 102t75 91h342v-12q-21 -24 -103 -76.5t-210 -120.5h-203zM881 1438q0 -108 -71 -174t-183 -66t-180 64t-68 174q0 108 67.5 172.5t180.5 64.5q110 0 182 -66t72 -169zM723 1436q0 45 -27 70.5t-69 25.5 t-69.5 -25.5t-27.5 -70.5t24.5 -71t72.5 -26q42 0 69 26t27 71z" />
<glyph unicode="&#x1fc;" horiz-adv-x="1950" d="M1829 0h-873v348h-491l-150 -348h-315l655 1462h1174v-254h-563v-321h526v-254h-526v-377h563v-256zM578 608h378v590h-127zM1004 1579v27q172 200 235 301h342v-21q-52 -52 -177.5 -154.5t-196.5 -152.5h-203z" />
<glyph unicode="&#x1fd;" horiz-adv-x="1878" d="M1329 -20q-137 0 -249.5 50.5t-184.5 155.5q-98 -117 -196.5 -161.5t-256.5 -44.5q-161 0 -258.5 94.5t-97.5 259.5q0 178 121 262.5t362 93.5l191 6v84q0 69 -44.5 102t-121.5 33q-140 0 -305 -77l-99 202q189 101 422 101q227 0 342 -131q66 64 152.5 96.5t206.5 32.5 q221 0 349 -137.5t128 -370.5v-148h-723q5 -130 77 -203t202 -73q196 0 380 88v-236q-79 -39 -171 -59t-226 -20zM760 518l-113 -4q-124 -4 -186 -47.5t-62 -134.5q0 -129 140 -129q101 0 161 61t60 162v92zM1307 922q-217 0 -234 -236h430q-2 112 -55 174t-141 62z M797 1241v27q172 200 235 301h342v-21q-52 -52 -177.5 -154.5t-196.5 -152.5h-203z" />
<glyph unicode="&#x1fe;" horiz-adv-x="1630" d="M1511 733q0 -363 -180 -558t-516 -195q-197 0 -336 65l-90 -135l-162 108l90 136q-198 194 -198 581q0 365 180.5 557.5t517.5 192.5q198 0 344 -70l84 125l160 -104l-88 -131q194 -194 194 -572zM444 733q0 -191 56 -307l506 756q-84 45 -189 45q-185 0 -279 -124.5 t-94 -369.5zM1186 733q0 180 -51 297l-500 -751q76 -39 180 -39q371 0 371 493zM637 1579v27q172 200 235 301h342v-21q-52 -52 -177.5 -154.5t-196.5 -152.5h-203z" />
<glyph unicode="&#x1ff;" horiz-adv-x="1268" d="M1176 561q0 -273 -144 -427t-401 -154q-126 0 -234 45l-67 -101l-154 105l68 100q-152 156 -152 432q0 274 143 426t402 152q132 0 248 -52l55 82l152 -108l-58 -84q142 -155 142 -416zM403 561q0 -94 19 -166l317 475q-43 23 -106 23q-122 0 -176 -82.5t-54 -249.5z M864 561q0 81 -12 141l-309 -462q38 -15 92 -15q122 0 175.5 84.5t53.5 251.5zM455 1241v27q172 200 235 301h342v-21q-52 -52 -177.5 -154.5t-196.5 -152.5h-203z" />
<glyph unicode="&#x218;" horiz-adv-x="1128" d="M1047 406q0 -198 -142.5 -312t-396.5 -114q-234 0 -414 88v288q148 -66 250.5 -93t187.5 -27q102 0 156.5 39t54.5 116q0 43 -24 76.5t-70.5 64.5t-189.5 99q-134 63 -201 121t-107 135t-40 180q0 194 131.5 305t363.5 111q114 0 217.5 -27t216.5 -76l-100 -241 q-117 48 -193.5 67t-150.5 19q-88 0 -135 -41t-47 -107q0 -41 19 -71.5t60.5 -59t196.5 -102.5q205 -98 281 -196.5t76 -241.5zM345 -426q15 49 34.5 143t27.5 158h282v-20q-75 -168 -166 -308h-178v27z" />
<glyph unicode="&#x219;" horiz-adv-x="1018" d="M940 332q0 -172 -119.5 -262t-357.5 -90q-122 0 -208 16.5t-161 48.5v252q85 -40 191.5 -67t187.5 -27q166 0 166 96q0 36 -22 58.5t-76 51t-144 66.5q-129 54 -189.5 100t-88 105.5t-27.5 146.5q0 149 115.5 230.5t327.5 81.5q202 0 393 -88l-92 -220q-84 36 -157 59 t-149 23q-135 0 -135 -73q0 -41 43.5 -71t190.5 -89q131 -53 192 -99t90 -106t29 -143zM294 -426q15 49 34.5 143t27.5 158h282v-20q-75 -168 -166 -308h-178v27z" />
<glyph unicode="&#x21a;" horiz-adv-x="1186" d="M748 0h-310v1204h-397v258h1104v-258h-397v-1204zM391 -426q15 49 34.5 143t27.5 158h282v-20q-75 -168 -166 -308h-178v27z" />
<glyph unicode="&#x21b;" horiz-adv-x="889" d="M631 223q80 0 192 35v-227q-114 -51 -280 -51q-183 0 -266.5 92.5t-83.5 277.5v539h-146v129l168 102l88 236h195v-238h313v-229h-313v-539q0 -65 36.5 -96t96.5 -31zM300 -426q15 49 34.5 143t27.5 158h282v-20q-75 -168 -166 -308h-178v27z" />
<glyph unicode="&#x237;" horiz-adv-x="625" d="M70 -492q-117 0 -201 25v240q70 -19 143 -19q77 0 112.5 43t35.5 127v1194h305v-1239q0 -178 -103 -274.5t-292 -96.5z" />
<glyph unicode="&#x2bc;" horiz-adv-x="444" d="M406 1462l14 -22q-50 -197 -176 -479h-219q69 296 100 501h281z" />
<glyph unicode="&#x2c6;" horiz-adv-x="1243" d="M852 1241q-157 93 -234 176q-78 -81 -229 -176h-203v27q189 189 256 301h357q31 -52 107.5 -141.5t148.5 -159.5v-27h-203z" />
<glyph unicode="&#x2c7;" horiz-adv-x="1243" d="M1055 1569v-27q-84 -84 -154.5 -167.5t-101.5 -133.5h-357q-29 47 -83 112.5t-173 188.5v27h203q147 -93 229 -176q84 87 234 176h203z" />
<glyph unicode="&#x2c9;" horiz-adv-x="1243" d="M283 1452h678v-211h-678v211z" />
<glyph unicode="&#x2d8;" horiz-adv-x="1243" d="M1014 1579q-12 -154 -122 -246t-276 -92q-174 0 -277.5 91t-111.5 247h170q4 -47 27.5 -74t66 -39t127.5 -12q206 0 222 125h174z" />
<glyph unicode="&#x2d9;" horiz-adv-x="625" d="M147 1407q0 149 166 149t166 -149q0 -71 -41.5 -110.5t-124.5 -39.5q-166 0 -166 150z" />
<glyph unicode="&#x2da;" horiz-adv-x="1182" d="M842 1479q0 -108 -71 -174t-183 -66t-180 64t-68 174q0 108 67.5 172.5t180.5 64.5q110 0 182 -66t72 -169zM684 1477q0 45 -27 70.5t-69 25.5t-69 -25.5t-27 -70.5t24 -71t72 -26q42 0 69 26t27 71z" />
<glyph unicode="&#x2db;" horiz-adv-x="422" d="M221 -227q0 -42 22.5 -62t57.5 -20q55 0 115 18v-178q-82 -23 -156 -23q-113 0 -181.5 63.5t-68.5 166.5q0 67 38 126t142 136h179q-70 -66 -109 -120.5t-39 -106.5z" />
<glyph unicode="&#x2dc;" horiz-adv-x="1243" d="M457 1346q-31 0 -59.5 -26.5t-41.5 -80.5h-149q11 145 82.5 227t189.5 82q41 0 80.5 -16.5t78 -36t75.5 -35.5t73 -16q31 0 59.5 26t41.5 80h149q-11 -145 -83.5 -227t-188.5 -82q-41 0 -80.5 16.5t-78 36t-75.5 36t-73 16.5z" />
<glyph unicode="&#x2dd;" horiz-adv-x="1204" d="M156 1241v27q62 85 117.5 172.5t76.5 128.5h301v-21q-32 -53 -146 -153t-188 -154h-161zM553 1241v27q139 192 195 301h301v-21q-25 -43 -125.5 -134.5t-208.5 -172.5h-162z" />
<glyph unicode="&#x2f3;" horiz-adv-x="682" d="M590 -360q0 -108 -71 -174t-183 -66t-180 64t-68 174q0 108 67.5 172.5t180.5 64.5q110 0 182 -66t72 -169zM432 -362q0 45 -27 70.5t-69 25.5t-69 -25.5t-27 -70.5t24 -71t72 -26q42 0 69 26t27 71z" />
<glyph unicode="&#x300;" horiz-adv-x="0" d="M-627 1241q-63 44 -185 142.5t-190 164.5v21h342q63 -101 235 -301v-27h-202z" />
<glyph unicode="&#x301;" horiz-adv-x="0" d="M-816 1241v27q172 200 235 301h342v-21q-52 -52 -177.5 -154.5t-196.5 -152.5h-203z" />
<glyph unicode="&#x303;" horiz-adv-x="0" d="M-806 1346q-31 0 -59.5 -26.5t-41.5 -80.5h-149q11 145 82.5 227t189.5 82q41 0 80.5 -16.5t78 -36t75.5 -35.5t73 -16q31 0 59.5 26t41.5 80h149q-11 -145 -83.5 -227t-188.5 -82q-41 0 -80.5 16.5t-78 36t-75.5 36t-73 16.5z" />
<glyph unicode="&#x309;" horiz-adv-x="0" d="M-352 1487q0 -156 -162 -197l-10 -71h-174l-23 147q75 12 102 37.5t27 62.5q0 32 -21 49t-55 17q-65 0 -139 -23v168q30 10 82.5 16.5t93.5 6.5q140 0 209.5 -55.5t69.5 -157.5z" />
<glyph unicode="&#x30f;" horiz-adv-x="0" d="M-442 1241q-62 49 -171 150.5t-143 156.5v21h301q33 -72 83 -158.5t91 -142.5v-27h-161zM-840 1241q-73 57 -177.5 157t-135.5 150v21h301q33 -72 83 -158.5t91 -142.5v-27h-162z" />
<glyph unicode="&#x323;" horiz-adv-x="0" d="M-807 -281q0 150 166 150t166 -150q0 -71 -42 -110t-124 -39q-166 0 -166 149z" />
<glyph unicode="&#x384;" horiz-adv-x="1182" d="M471 1272q18 54 44.5 164t37.5 194h283v-24q-78 -186 -187 -365h-178v31z" />
<glyph unicode="&#x385;" horiz-adv-x="1182" d="M186 1405q0 71 35.5 103t93.5 32q57 0 94 -32t37 -103q0 -68 -37 -100.5t-94 -32.5q-58 0 -93.5 32.5t-35.5 100.5zM733 1405q0 135 131 135q57 0 94 -32t37 -103q0 -68 -37 -100.5t-94 -32.5q-60 0 -95.5 32.5t-35.5 100.5zM487 1415q15 49 34.5 143t27.5 158h262v-20 q-58 -128 -186 -307h-138v26z" />
<glyph unicode="&#x386;" horiz-adv-x="1413" d="M1079 0l-106 348h-533l-106 -348h-334l516 1468h379l518 -1468h-334zM899 608q-147 473 -165.5 535t-26.5 98q-33 -128 -189 -633h381zM-56 1167q18 54 44.5 164t37.5 194h283v-24q-78 -186 -187 -365h-178v31z" />
<glyph unicode="&#x387;" horiz-adv-x="584" d="M117 721q0 84 45 127t131 43q83 0 128.5 -44t45.5 -126q0 -79 -46 -124.5t-128 -45.5q-84 0 -130 44.5t-46 125.5z" />
<glyph unicode="&#x388;" horiz-adv-x="1290" d="M1169 0h-842v1462h842v-254h-532v-321h495v-254h-495v-377h532v-256zM-99 1167q18 54 44.5 164t37.5 194h283v-24q-78 -186 -187 -365h-178v31z" />
<glyph unicode="&#x389;" horiz-adv-x="1710" d="M1525 0h-309v631h-579v-631h-310v1462h310v-573h579v573h309v-1462zM-99 1167q18 54 44.5 164t37.5 194h283v-24q-78 -186 -187 -365h-178v31z" />
<glyph unicode="&#x38a;" horiz-adv-x="1049" d="M436 0v1462h310v-1462h-310zM-99 1167q18 54 44.5 164t37.5 194h283v-24q-78 -186 -187 -365h-178v31z" />
<glyph unicode="&#x38c;" horiz-adv-x="1712" d="M1593 733q0 -363 -180 -558t-516 -195t-516 195t-180 560t180.5 557.5t517.5 192.5t515.5 -194t178.5 -558zM526 733q0 -245 93 -369t278 -124q371 0 371 493q0 494 -369 494q-185 0 -279 -124.5t-94 -369.5zM-58 1167q18 54 44.5 164t37.5 194h283v-24 q-78 -186 -187 -365h-178v31z" />
<glyph unicode="&#x38e;" horiz-adv-x="1565" d="M926 860l305 602h334l-485 -893v-569h-308v559l-485 903h336zM-120 1167q18 54 44.5 164t37.5 194h283v-24q-78 -186 -187 -365h-178v31z" />
<glyph unicode="&#x38f;" horiz-adv-x="1610" d="M895 1227q-181 0 -279 -110t-98 -310q0 -203 66 -329.5t200 -198.5v-279h-639v260h371q-152 93 -234.5 253.5t-82.5 358.5q0 184 85.5 323.5t243.5 214.5t367 75q319 0 507.5 -167t188.5 -448q0 -198 -83 -356t-238 -254h374v-260h-643v279q139 72 205 201t66 329 q0 199 -98.5 308.5t-278.5 109.5zM-58 1167q18 54 44.5 164t37.5 194h283v-24q-78 -186 -187 -365h-178v31z" />
<glyph unicode="&#x390;" horiz-adv-x="834" d="M465 1118v-768q0 -65 36.5 -96t96.5 -31q81 0 193 35v-227q-109 -51 -263 -51q-190 0 -279 92.5t-89 277.5v768h305zM-55 1405q0 71 35.5 103t93.5 32q57 0 94 -32t37 -103q0 -68 -37 -100.5t-94 -32.5q-58 0 -93.5 32.5t-35.5 100.5zM492 1405q0 135 131 135 q57 0 94 -32t37 -103q0 -68 -37 -100.5t-94 -32.5q-60 0 -95.5 32.5t-35.5 100.5zM246 1415q15 49 34.5 143t27.5 158h262v-20q-58 -128 -186 -307h-138v26z" />
<glyph unicode="&#x391;" horiz-adv-x="1413" d="M1079 0l-106 348h-533l-106 -348h-334l516 1468h379l518 -1468h-334zM899 608q-147 473 -165.5 535t-26.5 98q-33 -128 -189 -633h381z" />
<glyph unicode="&#x392;" horiz-adv-x="1376" d="M184 1462h455q311 0 451.5 -88.5t140.5 -281.5q0 -131 -61.5 -215t-163.5 -101v-10q139 -31 200.5 -116t61.5 -226q0 -200 -144.5 -312t-392.5 -112h-547v1462zM494 883h180q126 0 182.5 39t56.5 129q0 84 -61.5 120.5t-194.5 36.5h-163v-325zM494 637v-381h202 q128 0 189 49t61 150q0 182 -260 182h-192z" />
<glyph unicode="&#x393;" horiz-adv-x="1149" d="M1108 1462v-256h-614v-1206h-310v1462h924z" />
<glyph unicode="&#x394;" horiz-adv-x="1348" d="M57 178l443 1290h350l440 -1292v-176h-1233v178zM674 1214q-2 -15 -12.5 -58.5t-30.5 -112.5t-258 -785h602l-252 768l-11 39q-36 129 -38 149z" />
<glyph unicode="&#x395;" horiz-adv-x="1147" d="M1026 0h-842v1462h842v-254h-532v-321h495v-254h-495v-377h532v-256z" />
<glyph unicode="&#x396;" horiz-adv-x="1186" d="M1137 0h-1088v201l701 1005h-682v256h1050v-200l-700 -1006h719v-256z" />
<glyph unicode="&#x397;" horiz-adv-x="1567" d="M1382 0h-309v631h-579v-631h-310v1462h310v-573h579v573h309v-1462z" />
<glyph unicode="&#x398;" horiz-adv-x="1630" d="M1075 870v-254h-520v254h520zM1511 733q0 -363 -180 -558t-516 -195t-516 195t-180 560t180.5 557.5t517.5 192.5t515.5 -194t178.5 -558zM438 733q0 -242 95.5 -367.5t281.5 -125.5q189 0 283 125.5t94 367.5t-94 368t-281 126t-283 -125.5t-96 -368.5z" />
<glyph unicode="&#x399;" horiz-adv-x="678" d="M184 0v1462h310v-1462h-310z" />
<glyph unicode="&#x39a;" horiz-adv-x="1360" d="M1360 0h-352l-383 616l-131 -94v-522h-310v1462h310v-669l122 172l396 497h344l-510 -647z" />
<glyph unicode="&#x39b;" horiz-adv-x="1331" d="M666 1202q-12 -62 -37.5 -173t-38.5 -152l-277 -877h-313l496 1462h338l497 -1462h-313l-273 879q-10 29 -40 149t-39 174z" />
<glyph unicode="&#x39c;" horiz-adv-x="1931" d="M803 0l-352 1147h-9q19 -350 19 -467v-680h-277v1462h422l346 -1118h6l367 1118h422v-1462h-289v692q0 49 1.5 113t13.5 340h-9l-377 -1145h-284z" />
<glyph unicode="&#x39d;" horiz-adv-x="1665" d="M1481 0h-394l-636 1106h-9q19 -293 19 -418v-688h-277v1462h391l635 -1095h7q-15 285 -15 403v692h279v-1462z" />
<glyph unicode="&#x39e;" d="M205 887h760v-254h-760v254zM123 1462h924v-254h-924v254zM1087 256v-256h-1005v256h1005z" />
<glyph unicode="&#x39f;" horiz-adv-x="1630" d="M1511 733q0 -363 -180 -558t-516 -195t-516 195t-180 560t180.5 557.5t517.5 192.5t515.5 -194t178.5 -558zM444 733q0 -245 93 -369t278 -124q371 0 371 493q0 494 -369 494q-185 0 -279 -124.5t-94 -369.5z" />
<glyph unicode="&#x3a0;" horiz-adv-x="1526" d="M1341 0h-309v1204h-538v-1204h-310v1462h1157v-1462z" />
<glyph unicode="&#x3a1;" horiz-adv-x="1286" d="M494 774h102q143 0 214 56.5t71 164.5q0 109 -59.5 161t-186.5 52h-141v-434zM1194 1006q0 -236 -147.5 -361t-419.5 -125h-133v-520h-310v1462h467q266 0 404.5 -114.5t138.5 -341.5z" />
<glyph unicode="&#x3a3;" horiz-adv-x="1214" d="M78 0v244l471 522l-459 459v237h995v-254h-438q-51 0 -227 11l454 -451l-477 -524q240 12 285 12h463v-256h-1067z" />
<glyph unicode="&#x3a4;" horiz-adv-x="1186" d="M748 0h-310v1204h-397v258h1104v-258h-397v-1204z" />
<glyph unicode="&#x3a5;" horiz-adv-x="1278" d="M639 860l305 602h334l-485 -893v-569h-308v559l-485 903h336z" />
<glyph unicode="&#x3a6;" horiz-adv-x="1761" d="M1020 444h14q161 0 252.5 84.5t91.5 231.5q0 136 -85 218.5t-232 82.5h-41v-617zM741 -20v225h-22q-186 0 -326 65.5t-220.5 196.5t-80.5 291q0 155 71.5 279.5t206.5 195t318 70.5h53v180h279v-180h53q182 0 317 -70.5t207 -195t72 -279.5q0 -160 -80.5 -291 t-220.5 -196.5t-326 -65.5h-22v-225h-279zM741 1061h-41q-147 0 -232 -82t-85 -219q0 -144 90 -230t254 -86h14v617z" />
<glyph unicode="&#x3a7;" horiz-adv-x="1366" d="M1366 0h-354l-340 553l-340 -553h-332l485 754l-454 708h342l315 -526l309 526h334l-459 -725z" />
<glyph unicode="&#x3a8;" horiz-adv-x="1794" d="M1686 983q0 -281 -149 -414t-450 -133h-51v-436h-278v436h-51q-305 0 -451.5 132.5t-146.5 410.5v483h290v-479q0 -157 75 -227t253 -70h31v776h278v-776h31q174 0 251 72.5t77 220.5v483h291v-479z" />
<glyph unicode="&#x3a9;" horiz-adv-x="1610" d="M805 1227q-181 0 -279 -110t-98 -310q0 -203 66 -329.5t200 -198.5v-279h-639v260h371q-152 93 -234.5 253.5t-82.5 358.5q0 184 85.5 323.5t243.5 214.5t367 75q319 0 507.5 -167t188.5 -448q0 -198 -83 -356t-238 -254h374v-260h-643v279q139 72 205 201t66 329 q0 199 -98.5 308.5t-278.5 109.5z" />
<glyph unicode="&#x3aa;" horiz-adv-x="678" d="M184 0v1462h310v-1462h-310zM-3 1743q0 65 37.5 100t101.5 35q66 0 103.5 -37t37.5 -98q0 -60 -38 -96.5t-103 -36.5q-64 0 -101.5 35t-37.5 98zM400 1743q0 70 40.5 102.5t100.5 32.5q65 0 103.5 -36t38.5 -99q0 -61 -39 -97t-103 -36q-60 0 -100.5 32.5t-40.5 100.5z " />
<glyph unicode="&#x3ab;" horiz-adv-x="1278" d="M639 860l305 602h334l-485 -893v-569h-308v559l-485 903h336zM299 1743q0 65 37.5 100t101.5 35q66 0 103.5 -37t37.5 -98q0 -60 -38 -96.5t-103 -36.5q-64 0 -101.5 35t-37.5 98zM702 1743q0 70 40.5 102.5t100.5 32.5q65 0 103.5 -36t38.5 -99q0 -61 -39 -97t-103 -36 q-60 0 -100.5 32.5t-40.5 100.5z" />
<glyph unicode="&#x3ac;" horiz-adv-x="1325" d="M623 223q118 0 171.5 71.5t57.5 250.5v12q0 180 -55.5 258t-178.5 78q-215 0 -215 -340q0 -165 53.5 -247.5t166.5 -82.5zM530 -20q-205 0 -321.5 152t-116.5 423q0 278 121.5 430t339.5 152q118 0 194.5 -42t126.5 -126h15q24 94 67 149h252q-32 -97 -51.5 -222.5 t-19.5 -229.5v-312q0 -118 84 -118q32 0 59 10v-240q-16 -10 -61.5 -18t-75.5 -8q-112 0 -171 38.5t-93 128.5h-21q-110 -167 -328 -167zM520 1272q18 54 44.5 164t37.5 194h283v-24q-78 -186 -187 -365h-178v31z" />
<glyph unicode="&#x3ad;" horiz-adv-x="1137" d="M840 688v-211h-168q-146 0 -219.5 -32.5t-73.5 -104.5q0 -125 268 -125q103 0 213 22.5t199 63.5v-244q-172 -77 -434 -77q-266 0 -406.5 82.5t-140.5 246.5q0 107 64 174t208 95v10q-213 49 -213 258q0 141 127 217t361 76q115 0 231.5 -23t204.5 -61l-94 -221 q-119 48 -188 63.5t-146 15.5q-113 0 -168 -25t-55 -79q0 -66 66.5 -93.5t209.5 -27.5h154zM508 1272q18 54 44.5 164t37.5 194h283v-24q-78 -186 -187 -365h-178v31z" />
<glyph unicode="&#x3ae;" horiz-adv-x="1346" d="M1192 -492h-305v1145q0 121 -43 181.5t-137 60.5q-128 0 -185 -85.5t-57 -283.5v-526h-305v1118h233l41 -143h17q51 81 140.5 122.5t203.5 41.5q195 0 296 -105.5t101 -304.5v-1221zM590 1272q18 54 44.5 164t37.5 194h283v-24q-78 -186 -187 -365h-178v31z" />
<glyph unicode="&#x3af;" horiz-adv-x="834" d="M465 1118v-768q0 -65 36.5 -96t96.5 -31q81 0 193 35v-227q-109 -51 -263 -51q-190 0 -279 92.5t-89 277.5v768h305zM228 1272q18 54 44.5 164t37.5 194h283v-24q-78 -186 -187 -365h-178v31z" />
<glyph unicode="&#x3b0;" horiz-adv-x="1321" d="M657 -18q-259 0 -386.5 129.5t-127.5 398.5v608h306v-618q0 -146 52.5 -210.5t166.5 -64.5q125 0 182 93t57 296q0 107 -14 214t-57 290h307q40 -157 54.5 -275.5t14.5 -236.5q0 -314 -136.5 -469t-418.5 -155zM254 1405q0 71 35.5 103t93.5 32q57 0 94 -32t37 -103 q0 -68 -37 -100.5t-94 -32.5q-58 0 -93.5 32.5t-35.5 100.5zM801 1405q0 135 131 135q57 0 94 -32t37 -103q0 -68 -37 -100.5t-94 -32.5q-60 0 -95.5 32.5t-35.5 100.5zM555 1415q15 49 34.5 143t27.5 158h262v-20q-58 -128 -186 -307h-138v26z" />
<glyph unicode="&#x3b1;" horiz-adv-x="1325" d="M623 223q118 0 171.5 71.5t57.5 250.5v12q0 180 -55.5 258t-178.5 78q-215 0 -215 -340q0 -165 53.5 -247.5t166.5 -82.5zM530 -20q-205 0 -321.5 152t-116.5 423q0 278 121.5 430t339.5 152q118 0 194.5 -42t126.5 -126h15q24 94 67 149h252q-32 -97 -51.5 -222.5 t-19.5 -229.5v-312q0 -118 84 -118q32 0 59 10v-240q-16 -10 -61.5 -18t-75.5 -8q-112 0 -171 38.5t-93 128.5h-21q-110 -167 -328 -167z" />
<glyph unicode="&#x3b2;" horiz-adv-x="1352" d="M694 1567q235 0 370.5 -104t135.5 -289q0 -149 -76 -235.5t-217 -109.5v-6q188 -24 280.5 -120.5t92.5 -270.5q0 -210 -130.5 -331t-358.5 -121q-200 0 -326 63v-535h-305v1588q0 224 140 347.5t394 123.5zM686 1329q-221 0 -221 -262v-774q48 -31 118 -50.5t130 -19.5 q128 0 190 62t62 174q0 110 -66.5 167.5t-193.5 57.5h-72v242h53q99 0 154 54.5t55 156.5q0 92 -55 142t-154 50z" />
<glyph unicode="&#x3b3;" horiz-adv-x="1163" d="M651 -492h-323q0 86 28 229t72 275l-426 1106h317l164 -493q21 -62 54 -183t47 -194h6q4 44 32.5 158.5t59.5 203.5l164 508h317l-413 -1100q-45 -116 -72 -256.5t-27 -253.5z" />
<glyph unicode="&#x3b4;" horiz-adv-x="1268" d="M485 918q-237 151 -237 342q0 144 120.5 225.5t333.5 81.5q111 0 215.5 -22.5t245.5 -88.5l-121 -215q-92 45 -178 72.5t-174 27.5q-73 0 -110 -27t-37 -73q0 -54 69 -106.5t207 -122.5q184 -94 270.5 -217t86.5 -283q0 -259 -141 -395.5t-406 -136.5q-244 0 -390.5 124 t-146.5 334q0 182 96.5 302t296.5 178zM864 492q0 93 -47.5 168t-152.5 133q-123 -35 -190.5 -125.5t-67.5 -216.5q0 -101 60 -163.5t165 -62.5q111 0 172 68t61 199z" />
<glyph unicode="&#x3b5;" horiz-adv-x="1137" d="M840 688v-211h-168q-146 0 -219.5 -32.5t-73.5 -104.5q0 -125 268 -125q103 0 213 22.5t199 63.5v-244q-172 -77 -434 -77q-266 0 -406.5 82.5t-140.5 246.5q0 107 64 174t208 95v10q-213 49 -213 258q0 141 127 217t361 76q115 0 231.5 -23t204.5 -61l-94 -221 q-119 48 -188 63.5t-146 15.5q-113 0 -168 -25t-55 -79q0 -66 66.5 -93.5t209.5 -27.5h154z" />
<glyph unicode="&#x3b6;" horiz-adv-x="1020" d="M1010 -37q0 -149 -138 -342h-307q69 93 108.5 170.5t39.5 124.5q0 32 -39.5 52.5t-141.5 39.5q-440 77 -440 459q0 209 131 420t439 463q-28 -7 -99.5 -12t-122.5 -5h-290v223h854v-182q-201 -167 -333 -316t-198.5 -289.5t-66.5 -287.5q0 -74 19.5 -119t56 -71.5 t88 -40.5t116.5 -27q166 -33 245 -95.5t79 -164.5z" />
<glyph unicode="&#x3b7;" horiz-adv-x="1346" d="M1192 -492h-305v1145q0 121 -43 181.5t-137 60.5q-128 0 -185 -85.5t-57 -283.5v-526h-305v1118h233l41 -143h17q51 81 140.5 122.5t203.5 41.5q195 0 296 -105.5t101 -304.5v-1221z" />
<glyph unicode="&#x3b8;" horiz-adv-x="1266" d="M1174 780q0 -405 -134.5 -602.5t-408.5 -197.5q-265 0 -402 205.5t-137 594.5q0 407 134 603t405 196q265 0 404 -203.5t139 -595.5zM631 201q117 0 170.5 116.5t58.5 354.5h-457q4 -235 56.5 -353t171.5 -118zM633 1358q-108 0 -163 -106.5t-64 -352.5h454 q-8 230 -60.5 344.5t-166.5 114.5z" />
<glyph unicode="&#x3b9;" horiz-adv-x="834" d="M465 1118v-768q0 -65 36.5 -96t96.5 -31q81 0 193 35v-227q-109 -51 -263 -51q-190 0 -279 92.5t-89 277.5v768h305z" />
<glyph unicode="&#x3ba;" horiz-adv-x="1270" d="M463 582l141 170l314 366h325l-440 -512l467 -606h-348l-314 426l-143 -90v-336h-305v1118h305v-293l-3 -161l-3 -82h4z" />
<glyph unicode="&#x3bb;" horiz-adv-x="1260" d="M8 0l473 1057l-35 92q-36 90 -82 127t-141 37q-50 0 -102 -13v252q79 17 166 17q115 0 196.5 -35t139 -108.5t108.5 -215.5l281 -772q37 -104 75 -153t93 -49q33 0 69 10v-236q-23 -12 -80 -21t-96 -9q-110 0 -180 54t-111 173q-114 323 -135.5 389.5t-34.5 118.5h-6 q-46 -154 -76 -230l-206 -485h-316z" />
<glyph unicode="&#x3bc;" horiz-adv-x="1352" d="M465 465q0 -121 44 -181.5t138 -60.5q126 0 183 86.5t57 282.5v526h305v-1118h-231l-43 150h-15q-42 -85 -102 -127.5t-148 -42.5q-62 0 -114 23t-84 67l5 -85l5 -157v-320h-305v1610h305v-653z" />
<glyph unicode="&#x3bd;" horiz-adv-x="1219" d="M6 1118h313l218 -620l69 -228h8q115 153 166 351t51 497h308q0 -256 -44 -441.5t-139.5 -351t-255.5 -325.5h-274z" />
<glyph unicode="&#x3be;" horiz-adv-x="1020" d="M92 438q0 126 73 221.5t210 149.5v10q-219 52 -219 254q0 107 67.5 171.5t220.5 101.5q-205 -13 -272 -13h-22v223h804v-210h-75q-185 0 -302.5 -68.5t-117.5 -185.5q0 -95 64.5 -136t211.5 -41h166v-210h-168q-173 0 -250 -61.5t-77 -184.5q0 -71 23.5 -113.5t72 -69 t184.5 -53.5q166 -33 245 -95.5t79 -164.5q0 -149 -138 -342h-307q69 93 108.5 170.5t39.5 124.5q0 32 -39.5 52.5t-141.5 39.5q-217 38 -328.5 147t-111.5 283z" />
<glyph unicode="&#x3bf;" horiz-adv-x="1268" d="M403 561q0 -166 54.5 -251t177.5 -85q122 0 175.5 84.5t53.5 251.5q0 166 -54 249t-177 83q-122 0 -176 -82.5t-54 -249.5zM1176 561q0 -273 -144 -427t-401 -154q-161 0 -284 70.5t-189 202.5t-66 308q0 274 143 426t402 152q161 0 284 -70t189 -201t66 -307z" />
<glyph unicode="&#x3c0;" horiz-adv-x="1513" d="M1300 219q67 0 130 35v-219q-41 -25 -104.5 -40t-117.5 -15q-150 0 -228.5 82t-78.5 245v578h-338v-885h-305v885h-233v131l178 102h1239v-233h-236v-566q0 -51 27 -75.5t67 -24.5z" />
<glyph unicode="&#x3c1;" horiz-adv-x="1266" d="M1174 559q0 -273 -122.5 -426t-340.5 -153q-154 0 -281 77h-18q16 -172 16 -268v-281h-307v1053q0 275 138.5 426.5t393.5 151.5q155 0 273 -70.5t183 -202.5t65 -307zM647 893q-113 0 -166 -76.5t-53 -241.5v-264q43 -43 101 -64.5t118 -21.5q114 0 163.5 78.5 t49.5 255.5q0 176 -48.5 255t-164.5 79z" />
<glyph unicode="&#x3c2;" horiz-adv-x="1020" d="M92 494q0 328 134.5 486.5t424.5 158.5q184 0 357 -80l-88 -232q-173 66 -277 66q-126 0 -183 -98t-57 -293q0 -74 25 -121t75 -75.5t183 -57.5q167 -35 245.5 -100t78.5 -171q0 -152 -138 -356h-307q148 214 148 311q0 36 -41 57.5t-140 41.5q-217 42 -328.5 158.5 t-111.5 304.5z" />
<glyph unicode="&#x3c3;" horiz-adv-x="1337" d="M1192 475q0 -146 -67.5 -259.5t-193 -174.5t-292.5 -61q-260 0 -403.5 150.5t-143.5 414.5q0 575 631 575h573v-223h-284q180 -190 180 -422zM406 545q0 -156 59.5 -238t177.5 -82q116 0 176 76.5t60 220.5q0 111 -29.5 201.5t-97.5 173.5h-50q-162 0 -229 -82t-67 -270z " />
<glyph unicode="&#x3c4;" horiz-adv-x="1102" d="M627 889v-539q0 -65 36.5 -96t96.5 -31q80 0 192 35v-227q-107 -51 -262 -51q-190 0 -279 92.5t-89 277.5v539h-281v127l176 102h807v-229h-397z" />
<glyph unicode="&#x3c5;" horiz-adv-x="1321" d="M657 -18q-259 0 -386.5 129.5t-127.5 398.5v608h306v-618q0 -146 52.5 -210.5t166.5 -64.5q125 0 182 93t57 296q0 107 -14 214t-57 290h307q40 -157 54.5 -275.5t14.5 -236.5q0 -314 -136.5 -469t-418.5 -155z" />
<glyph unicode="&#x3c6;" horiz-adv-x="1622" d="M1237 590q0 156 -47 239.5t-137 83.5q-57 0 -89 -39.5t-32 -136.5v-518q137 12 221 114t84 257zM649 -492v480q-275 30 -416 175.5t-141 391.5q0 155 55 298.5t175 289.5l221 -144q-90 -122 -127 -225.5t-37 -224.5q0 -278 270 -330v516q0 185 107 292.5t293 107.5 q225 0 353 -146t128 -397q0 -171 -74.5 -301.5t-210 -208t-313.5 -94.5v-480h-283z" />
<glyph unicode="&#x3c7;" horiz-adv-x="1212" d="M240 1133q90 0 147 -25.5t97 -82t81 -179.5l74 -221l279 493h307l-455 -762l195 -475q28 -64 63 -90.5t96 -26.5q49 0 101 13v-238q-85 -31 -195 -31q-125 0 -204.5 67.5t-131.5 225.5l-104 326l-314 -619h-325l502 885l-134 352q-25 70 -60 101t-91 31t-115 -19v244 q114 31 187 31z" />
<glyph unicode="&#x3c8;" horiz-adv-x="1714" d="M1008 1554v-1337q176 17 246.5 99.5t70.5 261.5q0 224 -80 540h283q78 -281 78 -543q0 -274 -150.5 -425t-447.5 -168v-474h-283v474q-290 9 -436 153.5t-146 419.5v563h291v-571q0 -173 64 -246.5t227 -85.5v1339h283z" />
<glyph unicode="&#x3c9;" horiz-adv-x="1767" d="M1208 -20q-122 0 -200 52.5t-119 157.5h-10q-46 -110 -123.5 -160t-196.5 -50q-214 0 -332 151t-118 412q0 154 24 284t88 291h293q-125 -262 -125 -565q0 -164 49.5 -250t145.5 -86q83 0 121 58t38 192v295h281v-295q0 -135 38 -192.5t122 -57.5q94 0 144 84.5t50 247.5 q0 307 -125 569h293q64 -162 88.5 -291t24.5 -284q0 -263 -119 -413t-332 -150z" />
<glyph unicode="&#x3ca;" horiz-adv-x="834" d="M465 1118v-768q0 -65 36.5 -96t96.5 -31q81 0 193 35v-227q-109 -51 -263 -51q-190 0 -279 92.5t-89 277.5v768h305zM12 1405q0 65 37.5 100t101.5 35q66 0 103.5 -37t37.5 -98q0 -60 -38 -96.5t-103 -36.5q-64 0 -101.5 35t-37.5 98zM415 1405q0 70 40.5 102.5 t100.5 32.5q65 0 103.5 -36t38.5 -99q0 -61 -39 -97t-103 -36q-60 0 -100.5 32.5t-40.5 100.5z" />
<glyph unicode="&#x3cb;" horiz-adv-x="1321" d="M657 -18q-259 0 -386.5 129.5t-127.5 398.5v608h306v-618q0 -146 52.5 -210.5t166.5 -64.5q125 0 182 93t57 296q0 107 -14 214t-57 290h307q40 -157 54.5 -275.5t14.5 -236.5q0 -314 -136.5 -469t-418.5 -155zM318 1405q0 65 37.5 100t101.5 35q66 0 103.5 -37t37.5 -98 q0 -60 -38 -96.5t-103 -36.5q-64 0 -101.5 35t-37.5 98zM721 1405q0 70 40.5 102.5t100.5 32.5q65 0 103.5 -36t38.5 -99q0 -61 -39 -97t-103 -36q-60 0 -100.5 32.5t-40.5 100.5z" />
<glyph unicode="&#x3cc;" horiz-adv-x="1268" d="M403 561q0 -166 54.5 -251t177.5 -85q122 0 175.5 84.5t53.5 251.5q0 166 -54 249t-177 83q-122 0 -176 -82.5t-54 -249.5zM1176 561q0 -273 -144 -427t-401 -154q-161 0 -284 70.5t-189 202.5t-66 308q0 274 143 426t402 152q161 0 284 -70t189 -201t66 -307zM537 1272 q18 54 44.5 164t37.5 194h283v-24q-78 -186 -187 -365h-178v31z" />
<glyph unicode="&#x3cd;" horiz-adv-x="1321" d="M657 -18q-259 0 -386.5 129.5t-127.5 398.5v608h306v-618q0 -146 52.5 -210.5t166.5 -64.5q125 0 182 93t57 296q0 107 -14 214t-57 290h307q40 -157 54.5 -275.5t14.5 -236.5q0 -314 -136.5 -469t-418.5 -155zM549 1272q18 54 44.5 164t37.5 194h283v-24 q-78 -186 -187 -365h-178v31z" />
<glyph unicode="&#x3ce;" horiz-adv-x="1767" d="M1208 -20q-122 0 -200 52.5t-119 157.5h-10q-46 -110 -123.5 -160t-196.5 -50q-214 0 -332 151t-118 412q0 154 24 284t88 291h293q-125 -262 -125 -565q0 -164 49.5 -250t145.5 -86q83 0 121 58t38 192v295h281v-295q0 -135 38 -192.5t122 -57.5q94 0 144 84.5t50 247.5 q0 307 -125 569h293q64 -162 88.5 -291t24.5 -284q0 -263 -119 -413t-332 -150zM780 1272q18 54 44.5 164t37.5 194h283v-24q-78 -186 -187 -365h-178v31z" />
<glyph unicode="&#x3d1;" horiz-adv-x="1499" d="M991 991q-22 169 -91.5 263t-170.5 94q-59 0 -94 -28t-35 -85q0 -114 103.5 -178t287.5 -66zM1309 762l2 -43v-45q0 -338 -158.5 -516t-464.5 -178q-219 0 -328.5 82.5t-109.5 248.5q0 53 6 105.5t6 95.5q0 42 -13.5 56t-41.5 14q-42 0 -90 -29l-76 182q149 86 301 86 q90 0 141.5 -47t51.5 -135q0 -63 -7.5 -130t-7.5 -138q0 -75 48.5 -114.5t140.5 -39.5q145 0 218.5 115t73.5 362v31l-2 33q-224 2 -380 60t-237 162.5t-81 244.5q0 161 112.5 256.5t309.5 95.5q241 0 383 -146.5t186 -439.5h146v-229h-129z" />
<glyph unicode="&#x3d2;" horiz-adv-x="1292" d="M637 852q62 136 122 258.5t112 210.5t110.5 121t153.5 33q85 0 151 -27v-229q-44 12 -69 12q-40 0 -66.5 -21.5t-52.5 -60.5q-67 -96 -158 -274t-145 -320v-555h-308v559l-487 903h336z" />
<glyph unicode="&#x3d6;" horiz-adv-x="2046" d="M1350 -20q-237 0 -320 210h-10q-82 -210 -320 -210q-221 0 -335.5 135t-114.5 387q0 178 63 387h-262v127l174 102h1770v-229h-258q63 -209 63 -387q0 -252 -114.5 -387t-335.5 -135zM1520 508q0 169 -64 381h-864q-62 -201 -62 -377q0 -150 46 -222.5t149 -72.5 q84 0 122 57.5t38 192.5v137h280v-137q0 -135 38 -192.5t122 -57.5q103 0 149 72t46 219z" />
<glyph unicode="&#x400;" horiz-adv-x="1147" d="M1026 0h-842v1462h842v-254h-532v-321h495v-254h-495v-377h532v-256zM573 1579q-63 44 -185 142.5t-190 164.5v21h342q63 -101 235 -301v-27h-202z" />
<glyph unicode="&#x401;" horiz-adv-x="1147" d="M1026 0h-842v1462h842v-254h-532v-321h495v-254h-495v-377h532v-256zM264 1743q0 65 37.5 100t101.5 35q66 0 103.5 -37t37.5 -98q0 -60 -38 -96.5t-103 -36.5q-64 0 -101.5 35t-37.5 98zM667 1743q0 70 40.5 102.5t100.5 32.5q65 0 103.5 -36t38.5 -99q0 -61 -39 -97 t-103 -36q-60 0 -100.5 32.5t-40.5 100.5z" />
<glyph unicode="&#x402;" horiz-adv-x="1649" d="M1133 -18q-116 0 -203 38v256q99 -43 172 -43q54 0 79 15.5t37.5 49.5t12.5 89v127q0 89 -41.5 124.5t-136.5 35.5h-336v-674h-309v1204h-367v258h1114v-258h-438v-272h348q228 0 351.5 -103t123.5 -292v-129q0 -209 -102.5 -317.5t-304.5 -108.5z" />
<glyph unicode="&#x403;" horiz-adv-x="1149" d="M1108 1462v-256h-614v-1206h-310v1462h924zM465 1579v27q172 200 235 301h342v-21q-52 -52 -177.5 -154.5t-196.5 -152.5h-203z" />
<glyph unicode="&#x404;" horiz-adv-x="1386" d="M842 1225q-170 0 -277 -95.5t-119 -265.5h633v-254h-635q13 -178 113.5 -275t288.5 -97q171 0 414 77v-260q-106 -40 -208.5 -57.5t-224.5 -17.5q-344 0 -526 193.5t-182 555.5q0 227 89 398.5t255.5 263.5t392.5 92q130 0 240.5 -27.5t218.5 -75.5l-111 -252l-87 37 q-142 60 -275 60z" />
<glyph unicode="&#x405;" horiz-adv-x="1128" d="M1047 406q0 -198 -142.5 -312t-396.5 -114q-234 0 -414 88v288q148 -66 250.5 -93t187.5 -27q102 0 156.5 39t54.5 116q0 43 -24 76.5t-70.5 64.5t-189.5 99q-134 63 -201 121t-107 135t-40 180q0 194 131.5 305t363.5 111q114 0 217.5 -27t216.5 -76l-100 -241 q-117 48 -193.5 67t-150.5 19q-88 0 -135 -41t-47 -107q0 -41 19 -71.5t60.5 -59t196.5 -102.5q205 -98 281 -196.5t76 -241.5z" />
<glyph unicode="&#x406;" horiz-adv-x="678" d="M184 0v1462h310v-1462h-310z" />
<glyph unicode="&#x407;" horiz-adv-x="678" d="M184 0v1462h310v-1462h-310zM-3 1743q0 65 37.5 100t101.5 35q66 0 103.5 -37t37.5 -98q0 -60 -38 -96.5t-103 -36.5q-64 0 -101.5 35t-37.5 98zM400 1743q0 70 40.5 102.5t100.5 32.5q65 0 103.5 -36t38.5 -99q0 -61 -39 -97t-103 -36q-60 0 -100.5 32.5t-40.5 100.5z " />
<glyph unicode="&#x408;" horiz-adv-x="678" d="M31 -430q-105 0 -183 22v258q80 -20 146 -20q102 0 146 63.5t44 198.5v1370h310v-1368q0 -256 -117 -390t-346 -134z" />
<glyph unicode="&#x409;" horiz-adv-x="2046" d="M1274 901h115q270 0 417.5 -116t147.5 -328q0 -228 -147 -342.5t-435 -114.5h-407v1204h-291l-16 -134q-62 -511 -109.5 -717.5t-138.5 -290.5t-246 -82q-84 0 -148 22v254q58 -20 109 -20q53 0 84 48.5t58.5 180t73 431t77.5 566.5h856v-561zM1274 254h94 q141 0 206.5 50.5t65.5 152.5q0 99 -65.5 144.5t-228.5 45.5h-72v-393z" />
<glyph unicode="&#x40a;" horiz-adv-x="2052" d="M1960 457q0 -228 -147 -342.5t-435 -114.5h-407v631h-477v-631h-310v1462h310v-573h477v573h309v-561h115q270 0 417.5 -116t147.5 -328zM1280 254h94q141 0 207 50.5t66 152.5q0 101 -67.5 145.5t-227.5 44.5h-72v-393z" />
<glyph unicode="&#x40b;" horiz-adv-x="1649" d="M1231 0v514q0 89 -35 124.5t-115 35.5h-364v-674h-309v1204h-367v258h1114v-258h-438v-272h385q208 0 323 -104.5t115 -290.5v-537h-309z" />
<glyph unicode="&#x40c;" horiz-adv-x="1376" d="M1376 0h-352l-530 741v-741h-310v1462h310v-708l524 708h330l-533 -702zM580 1579v27q172 200 235 301h342v-21q-52 -52 -177.5 -154.5t-196.5 -152.5h-203z" />
<glyph unicode="&#x40d;" horiz-adv-x="1686" d="M184 1462h279v-706l-4 -189l-10 -215h6l675 1110h371v-1462h-276v702q0 141 18 418h-8l-678 -1120h-373v1462zM791 1579q-63 44 -185 142.5t-190 164.5v21h342q63 -101 235 -301v-27h-202z" />
<glyph unicode="&#x40e;" horiz-adv-x="1337" d="M1337 1462l-452 -1034q-85 -195 -159.5 -280t-176.5 -126.5t-248 -41.5q-125 0 -233 30v266q88 -36 219 -36q83 0 134 38.5t85 133.5l-506 1050h328l360 -815h10l18 50l302 765h319zM1169 1937q-19 -187 -141 -272.5t-352 -85.5q-237 0 -350.5 82t-127.5 276h273 q7 -103 51.5 -144.5t159.5 -41.5q101 0 150.5 45.5t60.5 140.5h276z" />
<glyph unicode="&#x40f;" horiz-adv-x="1526" d="M1341 0h-428v-426h-299v426h-430v1462h310v-1204h538v1204h309v-1462z" />
<glyph unicode="&#x410;" horiz-adv-x="1413" d="M1079 0l-106 348h-533l-106 -348h-334l516 1468h379l518 -1468h-334zM899 608q-147 473 -165.5 535t-26.5 98q-33 -128 -189 -633h381z" />
<glyph unicode="&#x411;" horiz-adv-x="1307" d="M494 901h122q286 0 442 -116t156 -328q0 -457 -604 -457h-426v1462h924v-256h-614v-305zM494 254h104q157 0 230 50.5t73 152.5q0 101 -74 145.5t-254 44.5h-79v-393z" />
<glyph unicode="&#x412;" horiz-adv-x="1376" d="M184 1462h455q311 0 451.5 -88.5t140.5 -281.5q0 -131 -61.5 -215t-163.5 -101v-10q139 -31 200.5 -116t61.5 -226q0 -200 -144.5 -312t-392.5 -112h-547v1462zM494 883h180q126 0 182.5 39t56.5 129q0 84 -61.5 120.5t-194.5 36.5h-163v-325zM494 637v-381h202 q128 0 189 49t61 150q0 182 -260 182h-192z" />
<glyph unicode="&#x413;" horiz-adv-x="1149" d="M1108 1462v-256h-614v-1206h-310v1462h924z" />
<glyph unicode="&#x414;" horiz-adv-x="1565" d="M10 258h113q145 290 229 579.5t125 624.5h852v-1204h195v-684h-299v426h-916v-426h-299v684zM723 1204q-32 -229 -106.5 -485t-167.5 -461h571v946h-297z" />
<glyph unicode="&#x415;" horiz-adv-x="1147" d="M1026 0h-842v1462h842v-254h-532v-321h495v-254h-495v-377h532v-256z" />
<glyph unicode="&#x416;" horiz-adv-x="1931" d="M520 760l-491 702h319l473 -708v708h289v-708l473 708h320l-492 -702l520 -760h-332l-489 741v-741h-289v741l-489 -741h-332z" />
<glyph unicode="&#x417;" horiz-adv-x="1327" d="M1194 1120q0 -141 -100 -233t-271 -117v-6q201 -20 308.5 -111t107.5 -237q0 -202 -163.5 -319t-452.5 -117q-322 0 -517 79v260q94 -45 220.5 -70.5t236.5 -25.5q369 0 369 215q0 97 -118.5 149t-350.5 52h-137v242h123q232 0 338 44t106 146q0 75 -66.5 119.5 t-199.5 44.5q-206 0 -398 -119l-135 207q125 83 265 121.5t311 38.5q239 0 381.5 -100t142.5 -263z" />
<glyph unicode="&#x418;" horiz-adv-x="1686" d="M184 1462h279v-706l-4 -189l-10 -215h6l675 1110h371v-1462h-276v702q0 141 18 418h-8l-678 -1120h-373v1462z" />
<glyph unicode="&#x419;" horiz-adv-x="1686" d="M184 1462h279v-706l-4 -189l-10 -215h6l675 1110h371v-1462h-276v702q0 141 18 418h-8l-678 -1120h-373v1462zM1327 1937q-19 -187 -141 -272.5t-352 -85.5q-237 0 -350.5 82t-127.5 276h273q7 -103 51.5 -144.5t159.5 -41.5q101 0 150.5 45.5t60.5 140.5h276z" />
<glyph unicode="&#x41a;" horiz-adv-x="1376" d="M1376 0h-352l-530 741v-741h-310v1462h310v-708l524 708h330l-533 -702z" />
<glyph unicode="&#x41b;" horiz-adv-x="1526" d="M1341 0h-309v1204h-358l-16 -134q-62 -511 -109.5 -717.5t-138.5 -290.5t-246 -82q-84 0 -148 22v254q58 -20 109 -20q53 0 84 48.5t58.5 180t73 431t77.5 566.5h923v-1462z" />
<glyph unicode="&#x41c;" horiz-adv-x="1931" d="M803 0l-352 1147h-9q19 -350 19 -467v-680h-277v1462h422l346 -1118h6l367 1118h422v-1462h-289v692q0 49 1.5 113t13.5 340h-9l-377 -1145h-284z" />
<glyph unicode="&#x41d;" horiz-adv-x="1567" d="M1382 0h-309v631h-579v-631h-310v1462h310v-573h579v573h309v-1462z" />
<glyph unicode="&#x41e;" horiz-adv-x="1630" d="M1511 733q0 -363 -180 -558t-516 -195t-516 195t-180 560t180.5 557.5t517.5 192.5t515.5 -194t178.5 -558zM444 733q0 -245 93 -369t278 -124q371 0 371 493q0 494 -369 494q-185 0 -279 -124.5t-94 -369.5z" />
<glyph unicode="&#x41f;" horiz-adv-x="1526" d="M1341 0h-309v1204h-538v-1204h-310v1462h1157v-1462z" />
<glyph unicode="&#x420;" horiz-adv-x="1286" d="M494 774h102q143 0 214 56.5t71 164.5q0 109 -59.5 161t-186.5 52h-141v-434zM1194 1006q0 -236 -147.5 -361t-419.5 -125h-133v-520h-310v1462h467q266 0 404.5 -114.5t138.5 -341.5z" />
<glyph unicode="&#x421;" horiz-adv-x="1305" d="M805 1225q-175 0 -271 -131.5t-96 -366.5q0 -489 367 -489q154 0 373 77v-260q-180 -75 -402 -75q-319 0 -488 193.5t-169 555.5q0 228 83 399.5t238.5 263t364.5 91.5q213 0 428 -103l-100 -252q-82 39 -165 68t-163 29z" />
<glyph unicode="&#x422;" horiz-adv-x="1186" d="M748 0h-310v1204h-397v258h1104v-258h-397v-1204z" />
<glyph unicode="&#x423;" horiz-adv-x="1337" d="M1337 1462l-452 -1034q-85 -195 -159.5 -280t-176.5 -126.5t-248 -41.5q-125 0 -233 30v266q88 -36 219 -36q83 0 134 38.5t85 133.5l-506 1050h328l360 -815h10l18 50l302 765h319z" />
<glyph unicode="&#x424;" horiz-adv-x="1761" d="M1020 444h14q161 0 252.5 84.5t91.5 231.5q0 136 -85 218.5t-232 82.5h-41v-617zM741 -20v225h-22q-186 0 -326 65.5t-220.5 196.5t-80.5 291q0 155 71.5 279.5t206.5 195t318 70.5h53v180h279v-180h53q182 0 317 -70.5t207 -195t72 -279.5q0 -160 -80.5 -291 t-220.5 -196.5t-326 -65.5h-22v-225h-279zM741 1061h-41q-147 0 -232 -82t-85 -219q0 -144 90 -230t254 -86h14v617z" />
<glyph unicode="&#x425;" horiz-adv-x="1366" d="M1366 0h-354l-340 553l-340 -553h-332l485 754l-454 708h342l315 -526l309 526h334l-459 -725z" />
<glyph unicode="&#x426;" horiz-adv-x="1599" d="M1341 246h218v-672h-299v426h-1076v1462h310v-1204h538v1204h309v-1216z" />
<glyph unicode="&#x427;" horiz-adv-x="1491" d="M1307 0h-310v565q-154 -52 -256.5 -71t-195.5 -19q-209 0 -322.5 100.5t-113.5 282.5v604h309v-516q0 -106 49 -159.5t166 -53.5q82 0 163.5 16.5t200.5 57.5v655h310v-1462z" />
<glyph unicode="&#x428;" horiz-adv-x="2208" d="M1260 258h454v1204h309v-1462h-1839v1462h310v-1204h454v1204h312v-1204z" />
<glyph unicode="&#x429;" horiz-adv-x="2281" d="M1260 258h454v1204h309v-1216h218v-672h-299v426h-1758v1462h310v-1204h454v1204h312v-1204zM2208 0z" />
<glyph unicode="&#x42a;" horiz-adv-x="1489" d="M1397 457q0 -228 -152.5 -342.5t-451.5 -114.5h-426v1204h-367v258h676v-561h123q286 0 442 -116t156 -328zM676 254h104q157 0 230 50.5t73 152.5q0 101 -74 145.5t-253 44.5h-80v-393z" />
<glyph unicode="&#x42b;" horiz-adv-x="1855" d="M1184 457q0 -228 -151.5 -342.5t-448.5 -114.5h-400v1462h310v-561h100q281 0 435.5 -116.5t154.5 -327.5zM494 254h81q153 0 224 50.5t71 152.5t-68.5 146t-240.5 44h-67v-393zM1671 0h-309v1462h309v-1462z" />
<glyph unicode="&#x42c;" horiz-adv-x="1307" d="M1214 457q0 -457 -604 -457h-426v1462h310v-561h122q286 0 442 -116t156 -328zM494 254h104q157 0 230 50.5t73 152.5q0 101 -74 145.5t-254 44.5h-79v-393z" />
<glyph unicode="&#x42d;" horiz-adv-x="1358" d="M553 1225q-99 0 -194.5 -28t-188.5 -67l-98 250q232 103 487 103q325 0 502.5 -199.5t177.5 -554.5q0 -362 -182.5 -555.5t-526.5 -193.5q-237 0 -432 75v260q243 -77 414 -77q191 0 291.5 93t109.5 279h-634v254h632q-6 170 -102 265.5t-256 95.5z" />
<glyph unicode="&#x42e;" horiz-adv-x="2191" d="M2073 733q0 -360 -168.5 -556.5t-483.5 -196.5q-289 0 -455 166.5t-192 484.5h-280v-631h-310v1462h310v-573h286q34 289 198.5 442.5t444.5 153.5q316 0 483 -196t167 -556zM1092 733q0 -244 84 -368.5t245 -124.5q332 0 332 493q0 244 -82.5 369t-245.5 125 q-164 0 -248.5 -125t-84.5 -369z" />
<glyph unicode="&#x42f;" horiz-adv-x="1362" d="M676 561l-342 -561h-344l416 643q-124 50 -190 154.5t-66 246.5q0 201 142.5 309.5t409.5 108.5h476v-1462h-310v561h-192zM868 1208h-153q-120 0 -186 -43t-66 -143q0 -97 64 -153t196 -56h145v395z" />
<glyph unicode="&#x430;" horiz-adv-x="1237" d="M870 0l-59 152h-8q-77 -97 -158.5 -134.5t-212.5 -37.5q-161 0 -253.5 92t-92.5 262q0 178 124.5 262.5t375.5 93.5l194 6v49q0 170 -174 170q-134 0 -315 -81l-101 206q193 101 428 101q225 0 345 -98t120 -298v-745h-213zM780 518l-118 -4q-133 -4 -198 -48t-65 -134 q0 -129 148 -129q106 0 169.5 61t63.5 162v92z" />
<glyph unicode="&#x431;" horiz-adv-x="1274" d="M92 670q0 385 146.5 584.5t457.5 252.5q151 26 451 66l35 -266q-130 -15 -461 -64q-126 -20 -188 -60t-92.5 -114t-37.5 -197h15q53 82 140 126t187 44q207 0 322 -126.5t115 -362.5q0 -272 -145.5 -422.5t-401.5 -150.5t-399.5 183.5t-143.5 506.5zM653 227 q217 0 217 299q0 291 -196 291q-54 0 -107.5 -25t-98 -65.5t-65.5 -81.5q0 -203 65 -310.5t185 -107.5z" />
<glyph unicode="&#x432;" horiz-adv-x="1309" d="M1192 825q0 -90 -56.5 -153.5t-166.5 -81.5v-8q119 -14 188.5 -81.5t69.5 -166.5q0 -163 -128 -248.5t-366 -85.5h-573v1118h573q230 0 344.5 -74.5t114.5 -218.5zM911 350q0 66 -51 95.5t-153 29.5h-242v-264h248q97 0 147.5 36.5t50.5 102.5zM883 801q0 102 -162 102 h-256v-221h221q97 0 147 28t50 91z" />
<glyph unicode="&#x433;" horiz-adv-x="979" d="M932 1118v-229h-467v-889h-305v1118h772z" />
<glyph unicode="&#x434;" horiz-adv-x="1360" d="M860 223v666h-229q-25 -186 -68.5 -353t-120.5 -313h418zM1329 -401h-274v401h-752v-401h-274v624h94q96 149 161 376t91 519h790v-895h164v-624z" />
<glyph unicode="&#x435;" horiz-adv-x="1210" d="M623 922q-97 0 -152 -61.5t-63 -174.5h428q-2 113 -59 174.5t-154 61.5zM666 -20q-270 0 -422 149t-152 422q0 281 140.5 434.5t388.5 153.5q237 0 369 -135t132 -373v-148h-721q5 -130 77 -203t202 -73q101 0 191 21t188 67v-236q-80 -40 -171 -59.5t-222 -19.5z" />
<glyph unicode="&#x436;" horiz-adv-x="1788" d="M752 575v543h284v-543l398 543h315l-412 -536l451 -582h-326l-426 567v-567h-284v567l-426 -567h-326l451 582l-412 536h315z" />
<glyph unicode="&#x437;" horiz-adv-x="1137" d="M438 688q173 0 245.5 28t72.5 89q0 54 -53 81t-175 27q-77 0 -174.5 -19t-177.5 -52l-90 213q119 45 231 64.5t250 19.5q209 0 335 -80t126 -217q0 -189 -223 -246v-10q137 -34 195.5 -96.5t58.5 -163.5q0 -102 -66 -181t-191 -122t-294 -43q-280 0 -430 69v252 q86 -40 188.5 -63t198.5 -23q149 0 223 33.5t74 95.5q0 68 -78 100.5t-240 32.5h-118v211h112z" />
<glyph unicode="&#x438;" horiz-adv-x="1475" d="M455 1118v-442q0 -70 -23 -342l516 784h367v-1118h-295v446q0 119 20 336l-514 -782h-366v1118h295z" />
<glyph unicode="&#x439;" horiz-adv-x="1475" d="M455 1118v-442q0 -70 -23 -342l516 784h367v-1118h-295v446q0 119 20 336l-514 -782h-366v1118h295zM1225 1599q-19 -187 -141 -272.5t-352 -85.5q-237 0 -350.5 82t-127.5 276h273q7 -103 51.5 -144.5t159.5 -41.5q101 0 150.5 45.5t60.5 140.5h276z" />
<glyph unicode="&#x43a;" horiz-adv-x="1268" d="M893 1118h336l-443 -536l482 -582h-346l-457 567v-567h-305v1118h305v-543z" />
<glyph unicode="&#x43b;" horiz-adv-x="1321" d="M1161 0h-305v889h-281q-32 -375 -78 -559.5t-122.5 -267t-200.5 -82.5q-106 0 -174 32v244q49 -20 98 -20q57 0 95.5 82t69 273.5t52.5 526.5h846v-1118z" />
<glyph unicode="&#x43c;" horiz-adv-x="1729" d="M1569 0h-285v881l-16 -62q-54 -211 -97 -319l-198 -500h-217l-201 504q-43 110 -92 309l-19 68v-881h-284v1118h420l192 -477q30 -77 55.5 -177t34.5 -171q33 150 51.5 215.5t40.5 120.5t199 489h416v-1118z" />
<glyph unicode="&#x43d;" horiz-adv-x="1356" d="M465 1118v-430h426v430h305v-1118h-305v461h-426v-461h-305v1118h305z" />
<glyph unicode="&#x43e;" horiz-adv-x="1268" d="M403 561q0 -166 54.5 -251t177.5 -85q122 0 175.5 84.5t53.5 251.5q0 166 -54 249t-177 83q-122 0 -176 -82.5t-54 -249.5zM1176 561q0 -273 -144 -427t-401 -154q-161 0 -284 70.5t-189 202.5t-66 308q0 274 143 426t402 152q161 0 284 -70t189 -201t66 -307z" />
<glyph unicode="&#x43f;" horiz-adv-x="1335" d="M1176 1118v-1118h-306v889h-405v-889h-305v1118h1016z" />
<glyph unicode="&#x440;" horiz-adv-x="1296" d="M774 -20q-197 0 -309 143h-16q16 -140 16 -162v-453h-305v1610h248l43 -145h14q107 166 317 166q198 0 310 -153t112 -425q0 -179 -52.5 -311t-149.5 -201t-228 -69zM684 895q-113 0 -165 -69.5t-54 -229.5v-33q0 -180 53.5 -258t169.5 -78q205 0 205 338 q0 165 -50.5 247.5t-158.5 82.5z" />
<glyph unicode="&#x441;" horiz-adv-x="1053" d="M614 -20q-522 0 -522 573q0 285 142 435.5t407 150.5q194 0 348 -76l-90 -236q-72 29 -134 47.5t-124 18.5q-238 0 -238 -338q0 -328 238 -328q88 0 163 23.5t150 73.5v-261q-74 -47 -149.5 -65t-190.5 -18z" />
<glyph unicode="&#x442;" horiz-adv-x="1133" d="M1085 1118v-229h-366v-889h-305v889h-367v229h1038z" />
<glyph unicode="&#x443;" horiz-adv-x="1165" d="M0 1118h334l211 -629q27 -82 37 -194h6q11 103 43 194l207 629h327l-473 -1261q-65 -175 -185.5 -262t-281.5 -87q-79 0 -155 17v242q55 -13 120 -13q81 0 141.5 49.5t94.5 149.5l18 55z" />
<glyph unicode="&#x444;" horiz-adv-x="1667" d="M977 1124q280 -23 439 -173t159 -392q0 -247 -157 -395.5t-441 -171.5v-484h-283v484q-283 26 -442.5 177.5t-159.5 389.5q0 253 154 399.5t448 165.5v432h283v-432zM406 559q0 -141 77 -229.5t211 -106.5v672q-129 -17 -208.5 -109t-79.5 -227zM1262 559 q0 132 -75 222.5t-210 109.5v-668q133 18 209 107t76 229z" />
<glyph unicode="&#x445;" horiz-adv-x="1184" d="M389 571l-360 547h346l217 -356l219 356h346l-364 -547l381 -571h-347l-235 383l-236 -383h-346z" />
<glyph unicode="&#x446;" horiz-adv-x="1409" d="M1217 223h163v-624h-274v401h-946v1118h305v-889h446v889h306v-895z" />
<glyph unicode="&#x447;" horiz-adv-x="1343" d="M428 1118v-409q0 -146 135 -146q88 0 163.5 20t152.5 52v483h305v-1118h-305v444q-106 -56 -197 -79t-176 -23q-183 0 -283 93.5t-100 266.5v416h305z" />
<glyph unicode="&#x448;" horiz-adv-x="1985" d="M1825 0h-1665v1118h305v-889h375v889h305v-889h375v889h305v-1118z" />
<glyph unicode="&#x449;" horiz-adv-x="2017" d="M1825 223h164v-624h-275v401h-1554v1118h305v-889h375v889h305v-889h375v889h305v-895zM1985 0z" />
<glyph unicode="&#x44a;" horiz-adv-x="1454" d="M662 1118v-432h215q258 0 381.5 -82t123.5 -248q0 -356 -493 -356h-533v889h-356v229h662zM1077 352q0 65 -51.5 94t-155.5 29h-208v-264h212q203 0 203 141z" />
<glyph unicode="&#x44b;" horiz-adv-x="1741" d="M465 686h147q256 0 379 -82t123 -248q0 -177 -123 -266.5t-368 -89.5h-463v1118h305v-432zM809 352q0 65 -52 94t-155 29h-137v-264h141q203 0 203 141zM1581 0h-305v1118h305v-1118z" />
<glyph unicode="&#x44c;" horiz-adv-x="1257" d="M465 686h215q258 0 382 -82t124 -248q0 -356 -494 -356h-532v1118h305v-432zM881 352q0 65 -52 94t-155 29h-209v-264h213q203 0 203 141z" />
<glyph unicode="&#x44d;" horiz-adv-x="1049" d="M418 -20q-210 0 -344 69v238q174 -80 327 -80q110 0 170 64t70 192h-422v203h422q-8 123 -61.5 185t-153.5 62q-119 0 -260 -63l-86 209q75 35 169.5 57.5t188.5 22.5q262 0 390 -142t128 -426q0 -292 -135.5 -441.5t-402.5 -149.5z" />
<glyph unicode="&#x44e;" horiz-adv-x="1796" d="M1704 561q0 -275 -139 -428t-385 -153q-221 0 -353.5 124t-160.5 357h-201v-461h-305v1118h305v-430h205q29 214 165.5 332.5t350.5 118.5q237 0 377.5 -155.5t140.5 -422.5zM973 561q0 -167 49 -251.5t162 -84.5q111 0 160 84.5t49 251.5t-49.5 249.5t-161.5 82.5 q-111 0 -160 -83t-49 -249z" />
<glyph unicode="&#x44f;" horiz-adv-x="1214" d="M330 0h-330l301 442q-108 45 -163.5 130t-55.5 200q0 162 121.5 254t331.5 92h520v-1118h-305v416h-168zM381 770q0 -70 55 -109.5t144 -39.5h170v282h-209q-75 0 -117.5 -36.5t-42.5 -96.5z" />
<glyph unicode="&#x450;" horiz-adv-x="1210" d="M623 922q-97 0 -152 -61.5t-63 -174.5h428q-2 113 -59 174.5t-154 61.5zM666 -20q-270 0 -422 149t-152 422q0 281 140.5 434.5t388.5 153.5q237 0 369 -135t132 -373v-148h-721q5 -130 77 -203t202 -73q101 0 191 21t188 67v-236q-80 -40 -171 -59.5t-222 -19.5z M620 1241q-63 44 -185 142.5t-190 164.5v21h342q63 -101 235 -301v-27h-202z" />
<glyph unicode="&#x451;" horiz-adv-x="1210" d="M623 922q-97 0 -152 -61.5t-63 -174.5h428q-2 113 -59 174.5t-154 61.5zM666 -20q-270 0 -422 149t-152 422q0 281 140.5 434.5t388.5 153.5q237 0 369 -135t132 -373v-148h-721q5 -130 77 -203t202 -73q101 0 191 21t188 67v-236q-80 -40 -171 -59.5t-222 -19.5z M281 1405q0 65 37.5 100t101.5 35q66 0 103.5 -37t37.5 -98q0 -60 -38 -96.5t-103 -36.5q-64 0 -101.5 35t-37.5 98zM684 1405q0 70 40.5 102.5t100.5 32.5q65 0 103.5 -36t38.5 -99q0 -61 -39 -97t-103 -36q-60 0 -100.5 32.5t-40.5 100.5z" />
<glyph unicode="&#x452;" horiz-adv-x="1346" d="M829 -492q-107 0 -184 25v240q59 -19 119 -19q123 0 123 170v690q0 110 -47 165t-133 55q-127 0 -184.5 -87.5t-57.5 -281.5v-465h-305v1196h-156v199h156v161h305v-161h315v-199h-315v-18q0 -83 -14 -265h18q102 164 324 164q197 0 298 -105t101 -304v-789 q0 -179 -94 -275t-269 -96z" />
<glyph unicode="&#x453;" horiz-adv-x="979" d="M932 1118v-229h-467v-889h-305v1118h772zM361 1241v27q172 200 235 301h342v-21q-52 -52 -177.5 -154.5t-196.5 -152.5h-203z" />
<glyph unicode="&#x454;" horiz-adv-x="1073" d="M653 -20q-278 0 -419.5 145.5t-141.5 427.5q0 298 135 442t424 144q184 0 357 -74l-88 -217q-170 65 -277 65q-105 0 -162.5 -61t-72.5 -186h421v-203h-421q14 -131 69 -193.5t158 -62.5q79 0 158.5 18t181.5 62v-234q-142 -73 -322 -73z" />
<glyph unicode="&#x455;" horiz-adv-x="1018" d="M940 332q0 -172 -119.5 -262t-357.5 -90q-122 0 -208 16.5t-161 48.5v252q85 -40 191.5 -67t187.5 -27q166 0 166 96q0 36 -22 58.5t-76 51t-144 66.5q-129 54 -189.5 100t-88 105.5t-27.5 146.5q0 149 115.5 230.5t327.5 81.5q202 0 393 -88l-92 -220q-84 36 -157 59 t-149 23q-135 0 -135 -73q0 -41 43.5 -71t190.5 -89q131 -53 192 -99t90 -106t29 -143z" />
<glyph unicode="&#x456;" horiz-adv-x="625" d="M147 1407q0 149 166 149t166 -149q0 -71 -41.5 -110.5t-124.5 -39.5q-166 0 -166 150zM465 0h-305v1118h305v-1118z" />
<glyph unicode="&#x457;" horiz-adv-x="625" d="M465 0h-305v1118h305v-1118zM-27 1405q0 65 37.5 100t101.5 35q66 0 103.5 -37t37.5 -98q0 -60 -38 -96.5t-103 -36.5q-64 0 -101.5 35t-37.5 98zM376 1405q0 70 40.5 102.5t100.5 32.5q65 0 103.5 -36t38.5 -99q0 -61 -39 -97t-103 -36q-60 0 -100.5 32.5t-40.5 100.5z " />
<glyph unicode="&#x458;" horiz-adv-x="625" d="M70 -492q-117 0 -201 25v240q70 -19 143 -19q77 0 112.5 43t35.5 127v1194h305v-1239q0 -178 -103 -274.5t-292 -96.5zM147 1407q0 149 166 149t166 -149q0 -71 -41.5 -110.5t-124.5 -39.5q-166 0 -166 150z" />
<glyph unicode="&#x459;" horiz-adv-x="1819" d="M813 0v889h-238q-32 -375 -78 -559.5t-122.5 -267t-200.5 -82.5q-106 0 -174 32v244q49 -20 98 -20q57 0 95.5 82t69 273.5t52.5 526.5h803v-432h142q248 0 367.5 -82t119.5 -248q0 -356 -481 -356h-453zM1442 352q0 65 -49 94t-146 29h-129v-264h133q191 0 191 141z" />
<glyph unicode="&#x45a;" horiz-adv-x="1819" d="M1118 686h142q248 0 367.5 -82t119.5 -248q0 -356 -481 -356h-453v461h-348v-461h-305v1118h305v-430h348v430h305v-432zM1442 352q0 65 -49 94t-146 29h-129v-264h133q191 0 191 141z" />
<glyph unicode="&#x45b;" horiz-adv-x="1346" d="M1192 0h-305v592q0 242 -180 242q-127 0 -184.5 -87.5t-57.5 -281.5v-465h-305v1196h-156v199h156v161h305v-161h315v-199h-315v-18q0 -83 -14 -265h18q102 164 324 164q197 0 298 -105t101 -304v-668z" />
<glyph unicode="&#x45c;" horiz-adv-x="1268" d="M893 1118h336l-443 -536l482 -582h-346l-457 567v-567h-305v1118h305v-543zM506 1241v27q172 200 235 301h342v-21q-52 -52 -177.5 -154.5t-196.5 -152.5h-203z" />
<glyph unicode="&#x45d;" horiz-adv-x="1475" d="M455 1118v-442q0 -70 -23 -342l516 784h367v-1118h-295v446q0 119 20 336l-514 -782h-366v1118h295zM719 1241q-63 44 -185 142.5t-190 164.5v21h342q63 -101 235 -301v-27h-202z" />
<glyph unicode="&#x45e;" horiz-adv-x="1165" d="M0 1118h334l211 -629q27 -82 37 -194h6q11 103 43 194l207 629h327l-473 -1261q-65 -175 -185.5 -262t-281.5 -87q-79 0 -155 17v242q55 -13 120 -13q81 0 141.5 49.5t94.5 149.5l18 55zM1070 1599q-19 -187 -141 -272.5t-352 -85.5q-237 0 -350.5 82t-127.5 276h273 q7 -103 51.5 -144.5t159.5 -41.5q101 0 150.5 45.5t60.5 140.5h276z" />
<glyph unicode="&#x45f;" horiz-adv-x="1376" d="M160 0v1118h305v-889h446v889h306v-1118h-392v-401h-274v401h-391z" />
<glyph unicode="&#x460;" horiz-adv-x="2228" d="M1534 1235q-39 0 -84 -16.5t-113 -61.5l-108 215q64 49 152 79t163 30q268 0 416.5 -187t148.5 -526q0 -375 -164 -581.5t-462 -206.5q-116 0 -205 36t-166 111q-77 -75 -164 -111t-203 -36q-297 0 -461.5 206t-164.5 582q0 338 148.5 525.5t416.5 187.5q74 0 161.5 -29 t153.5 -80l-108 -215q-68 45 -113.5 61.5t-83.5 16.5q-128 0 -199 -121.5t-71 -347.5q0 -251 93 -383.5t269 -132.5q83 0 168 69v396h310v-396q72 -69 180 -69q176 0 268 132.5t92 383.5q0 225 -71.5 347t-198.5 122z" />
<glyph unicode="&#x461;" horiz-adv-x="1812" d="M401 0l-395 1118h320l194 -641q33 -100 45 -229h8q16 83 76 229l109 277l-127 364h344l184 -620l62 -228h8q103 155 149.5 356.5t46.5 491.5h308q0 -368 -100 -641t-308 -477h-274l-164 381l-172 -381h-314z" />
<glyph unicode="&#x462;" horiz-adv-x="1378" d="M565 1124v-223h123q286 0 442 -116t156 -328q0 -457 -604 -457h-426v1124h-256v230h256v202h309v-202h377v-230h-377zM565 254h105q157 0 230 50.5t73 152.5q0 101 -74 145.5t-254 44.5h-80v-393z" />
<glyph unicode="&#x463;" horiz-adv-x="1356" d="M563 889v-203h215q258 0 382 -82t124 -248q0 -356 -493 -356h-533v889h-258v229h258v201h305v-201h359v-229h-359zM979 352q0 65 -52 94t-155 29h-209v-264h213q203 0 203 141z" />
<glyph unicode="&#x464;" horiz-adv-x="1946" d="M1638 631h-614q13 -181 117 -287t274 -106q97 0 193.5 20t210.5 57v-260q-104 -40 -204.5 -57.5t-219.5 -17.5q-315 0 -492.5 167t-202.5 484h-206v-631h-310v1462h310v-573h215q44 280 234 437t482 157q230 0 449 -103l-100 -252q-90 39 -180 68t-177 29 q-163 0 -267 -87t-124 -249h612v-258z" />
<glyph unicode="&#x465;" horiz-adv-x="1638" d="M1221 -20q-240 0 -375 121t-160 360h-221v-461h-305v1118h305v-430h221q24 225 152.5 338t361.5 113q91 0 186.5 -22t172.5 -58l-86 -209q-141 63 -261 63q-100 0 -153.5 -56.5t-61.5 -168.5h422v-227h-422q9 -128 67 -191t173 -63q152 0 328 80v-238q-136 -69 -344 -69z " />
<glyph unicode="&#x466;" horiz-adv-x="1495" d="M1194 0l-209 631h-100v-631h-273v631h-102l-207 -631h-303l557 1468h379l559 -1468h-301zM588 868h313q-134 345 -153 414q-11 -52 -160 -414z" />
<glyph unicode="&#x467;" horiz-adv-x="1311" d="M866 422h-78v-422h-264v422h-80l-151 -422h-293l471 1118h367l473 -1118h-293zM522 629h269l-35 80q-72 156 -101 243q-26 -93 -133 -323z" />
<glyph unicode="&#x468;" horiz-adv-x="2058" d="M1757 0l-209 631h-100v-631h-272v631h-103l-207 -631h-303l240 631h-309v-631h-310v1462h310v-573h407l219 579h379l559 -1468h-301zM1151 868h313l-51 137q-92 238 -102 277q-11 -52 -160 -414z" />
<glyph unicode="&#x469;" horiz-adv-x="1847" d="M1391 459h-66v-459h-264v459h-66l-166 -459h-292l194 461h-307v-461h-264v1118h264v-430h401l183 430h366l473 -1118h-293zM1077 666h234q-96 218 -119 286q-21 -73 -115 -286z" />
<glyph unicode="&#x46a;" horiz-adv-x="1647" d="M41 0l152 453q58 179 142 272t216 129l-375 469v139h1301v-139l-383 -469q135 -37 219 -132.5t141 -268.5l152 -453h-312l-123 385q-41 124 -83 174t-109 66v-625h-307v625q-71 -16 -114 -66.5t-83 -173.5l-123 -385h-311zM823 891l254 313h-506z" />
<glyph unicode="&#x46b;" horiz-adv-x="1276" d="M20 0l117 346q40 125 102.5 197t153.5 104l-289 365v106h1076v-106l-293 -367q89 -32 149.5 -104t102.5 -195l116 -346h-258l-94 295q-26 77 -54 110t-75 44v-449h-264v451q-54 -10 -84 -44t-53 -112l-94 -295h-259zM639 686l180 225h-358z" />
<glyph unicode="&#x46c;" horiz-adv-x="2198" d="M592 0l151 453q44 127 95 178h-344v-631h-310v1462h310v-573h579l-346 434v139h1301v-139l-383 -469q135 -37 219 -132.5t141 -268.5l152 -453h-312l-123 385q-41 124 -83 174t-109 66v-625h-307v625q-71 -16 -114 -66.5t-83 -173.5l-123 -385h-311zM1374 891l254 313 h-506zM551 0z" />
<glyph unicode="&#x46d;" horiz-adv-x="1802" d="M547 0l117 346q29 85 61 115h-301v-461h-264v1118h264v-430h463l-256 324v106h1075v-106l-293 -367q89 -32 150 -104t102 -195l117 -346h-258l-94 295q-23 72 -53 108t-77 46v-449h-264v451q-54 -10 -84 -44t-53 -112l-94 -295h-258zM1165 686l181 225h-359zM527 0z" />
<glyph unicode="&#x46e;" horiz-adv-x="1294" d="M963 1776q74 0 122 -17v-151q-26 12 -88 12q-93 0 -188 -154q168 -34 260 -126t92 -220q0 -140 -91.5 -232.5t-250.5 -117.5v-6q184 -20 285.5 -111.5t101.5 -236.5q0 -201 -168.5 -318.5t-464.5 -117.5q-92 0 -141 -8.5t-69.5 -28t-20.5 -60.5q0 -88 145 -88q89 0 193 5 l154 5q140 0 170 -41v-229q-16 16 -61 28.5t-99 12.5l-181 -4l-239 -4q-178 0 -280.5 86t-102.5 233q0 173 118 251t373 85q195 4 281 54.5t86 160.5q0 97 -118.5 149t-350.5 52h-137v242h123q232 0 338 44t106 146q0 75 -66.5 119.5t-199.5 44.5q-207 0 -397 -119l-136 207 q83 54 174.5 92t210.5 55q-96 119 -227 250v27h209q54 -40 209 -195q78 100 121.5 139t94 62t110.5 23z" />
<glyph unicode="&#x46f;" horiz-adv-x="1137" d="M891 1380q72 0 123 -16v-152q-34 13 -88 13q-84 0 -158 -111q126 -34 193 -104.5t67 -167.5q0 -95 -52.5 -156.5t-156.5 -89.5v-10q129 -34 184.5 -96.5t55.5 -163.5q0 -168 -146 -257t-417 -89q-108 0 -156.5 -19.5t-48.5 -71.5t37.5 -73t126.5 -21q85 0 164 5 q78 5 126 5q136 0 166 -41v-229q-17 17 -60 29t-95 12q-68 0 -157.5 -4t-213.5 -4q-177 0 -265.5 76.5t-88.5 230.5q0 175 115 257.5t352 82.5q132 0 198 32t66 97q0 68 -78 100.5t-240 32.5h-118v211h112q173 0 245.5 28t72.5 89q0 54 -53 81t-175 27q-77 0 -174.5 -19 t-177.5 -52l-90 213q65 24 128.5 40.5t125.5 26.5l-93 108l-87 95v27h196q57 -41 209 -195q82 102 125 140t92.5 60.5t108.5 22.5z" />
<glyph unicode="&#x470;" horiz-adv-x="1794" d="M1686 983q0 -281 -149 -414t-450 -133h-51v-436h-278v436h-51q-305 0 -451.5 132.5t-146.5 410.5v483h290v-479q0 -157 75 -227t253 -70h31v776h278v-776h31q174 0 251 72.5t77 220.5v483h291v-479z" />
<glyph unicode="&#x471;" horiz-adv-x="1714" d="M1008 1554v-1337q176 17 246.5 99.5t70.5 261.5q0 224 -80 540h283q78 -281 78 -543q0 -274 -150.5 -425t-447.5 -168v-474h-283v474q-290 9 -436 153.5t-146 419.5v563h291v-571q0 -173 64 -246.5t227 -85.5v1339h283z" />
<glyph unicode="&#x472;" horiz-adv-x="1630" d="M1511 733q0 -363 -180 -558t-516 -195t-516 195t-180 560t180.5 557.5t517.5 192.5t515.5 -194t178.5 -558zM815 240q163 0 257.5 96t113.5 285h-744q20 -180 111.5 -280.5t261.5 -100.5zM817 1227q-158 0 -251 -87t-120 -261h736q-25 169 -116.5 258.5t-248.5 89.5z" />
<glyph unicode="&#x473;" horiz-adv-x="1268" d="M1176 561q0 -273 -144 -427t-401 -154q-161 0 -284 70.5t-189 202.5t-66 308q0 274 143 426t402 152q161 0 284 -70t189 -201t66 -307zM635 225q97 0 153 58t70 174h-450q15 -116 70 -174t157 -58zM633 893q-98 0 -154 -56.5t-71 -168.5h450q-14 112 -68.5 168.5 t-156.5 56.5z" />
<glyph unicode="&#x474;" horiz-adv-x="1468" d="M1346 1217q-46 0 -78 -35.5t-74 -153.5l-360 -1028h-338l-496 1462h313l289 -909q43 -160 64 -299q17 128 71 299l170 520q55 171 101 249t106 115.5t146 37.5q116 0 186 -39v-242q-51 23 -100 23z" />
<glyph unicode="&#x475;" horiz-adv-x="1239" d="M0 1118h319l205 -626q50 -163 58 -242h4q13 111 57 235l123 344q51 142 89 195t91.5 77.5t138.5 24.5q76 0 148 -28v-236q-43 19 -82 19q-32 0 -57.5 -22t-46.5 -77l-308 -782h-311z" />
<glyph unicode="&#x476;" horiz-adv-x="1468" d="M1346 1217q-46 0 -78 -35.5t-74 -153.5l-360 -1028h-338l-496 1462h313l289 -909q43 -160 64 -299q17 128 71 299l170 520q55 171 101 249t106 115.5t146 37.5q116 0 186 -39v-242q-51 23 -100 23zM877 1579q-62 49 -171 150.5t-143 156.5v21h301q33 -72 83 -158.5 t91 -142.5v-27h-161zM479 1579q-73 57 -177.5 157t-135.5 150v21h301q33 -72 83 -158.5t91 -142.5v-27h-162z" />
<glyph unicode="&#x477;" horiz-adv-x="1239" d="M0 1118h319l205 -626q50 -163 58 -242h4q13 111 57 235l123 344q51 142 89 195t91.5 77.5t138.5 24.5q76 0 148 -28v-236q-43 19 -82 19q-32 0 -57.5 -22t-46.5 -77l-308 -782h-311zM785 1241q-62 49 -171 150.5t-143 156.5v21h301q33 -72 83 -158.5t91 -142.5v-27h-161z M387 1241q-73 57 -177.5 157t-135.5 150v21h301q33 -72 83 -158.5t91 -142.5v-27h-162z" />
<glyph unicode="&#x478;" horiz-adv-x="2701" d="M1536 1118h334l211 -629q27 -82 37 -194h6q11 103 43 194l207 629h327l-473 -1261q-65 -175 -185.5 -262t-281.5 -87q-78 0 -155 17v242q55 -13 120 -13q81 0 141.5 49.5t94.5 149.5l18 55zM1430 733q0 -371 -165 -562t-491 -191q-324 0 -489.5 189.5t-165.5 565.5 t166 563t491 187q323 0 488.5 -188.5t165.5 -563.5zM438 733q0 -257 82 -375t254 -118q173 0 254.5 114.5t81.5 378.5q0 261 -80.5 377.5t-253.5 116.5q-175 0 -256.5 -119t-81.5 -375z" />
<glyph unicode="&#x479;" horiz-adv-x="2345" d="M1180 1118h333l211 -629q26 -75 37 -194h6q13 103 43 194l207 629h328l-473 -1261q-65 -175 -185.5 -262t-281.5 -87q-77 0 -156 17v242q57 -13 121 -13q81 0 141.5 49.5t94.5 149.5l18 55zM403 561q0 -166 54.5 -251t177.5 -85q122 0 175.5 84.5t53.5 251.5 q0 166 -54 249t-177 83q-122 0 -176 -82.5t-54 -249.5zM1176 561q0 -273 -144 -427t-401 -154q-161 0 -284 70.5t-189 202.5t-66 308q0 274 143 426t402 152q161 0 284 -70t189 -201t66 -307z" />
<glyph unicode="&#x47a;" horiz-adv-x="1712" d="M1593 733q0 -321 -150.5 -512t-436.5 -231q-35 -115 -148 -115q-118 0 -147 115q-287 36 -439.5 227.5t-152.5 517.5q0 323 151 512.5t443 227.5q16 60 50 85t95 25q53 0 89 -22t54 -88q287 -38 439.5 -228t152.5 -514zM438 733q0 -198 71 -319t210 -158q22 42 56.5 57 t82.5 15q45 0 79.5 -15t57.5 -57q279 74 279 477q0 398 -275 475q-39 -75 -141 -75t-143 75q-277 -77 -277 -475z" />
<glyph unicode="&#x47b;" horiz-adv-x="1391" d="M1298 561q0 -235 -119.5 -379t-349.5 -182q-9 -53 -45 -82t-90 -29q-57 0 -92.5 29.5t-44.5 83.5q-223 39 -344 185.5t-121 373.5q0 237 121.5 382.5t351.5 178.5q19 82 129 82q106 0 127 -82q224 -34 350.5 -180.5t126.5 -380.5zM403 561q0 -270 158 -332 q19 39 47.5 60.5t85.5 21.5q43 0 74 -16.5t57 -67.5q83 31 122.5 119.5t39.5 214.5q0 130 -40 212.5t-113 111.5q-17 -47 -48 -75t-92 -28q-54 0 -88 24.5t-53 78.5q-150 -65 -150 -324z" />
<glyph unicode="&#x47c;" horiz-adv-x="2228" d="M1534 1235q-39 0 -84 -16.5t-113 -61.5l-88 215q60 47 137.5 78t157.5 31q268 0 416.5 -187t148.5 -526q0 -375 -164 -581.5t-462 -206.5q-107 0 -196 35.5t-173 117.5q-77 -75 -165 -114t-204 -39q-297 0 -461.5 206t-164.5 582q0 338 148.5 525.5t416.5 187.5 q81 0 158 -31t137 -78l-88 -215q-68 45 -113.5 61.5t-83.5 16.5q-128 0 -199 -121.5t-71 -347.5q0 -248 87 -384t247 -136q96 0 189 56t167 155q75 -101 168 -156t188 -55q162 0 248 137t86 383q0 225 -71.5 347t-198.5 122zM1548 2068v-194h-16q-180 0 -316 54 q-103 41 -128 47.5t-50 6.5q-46 0 -67.5 -25.5t-32.5 -84.5h-182v49q0 98 31.5 156t86.5 85t160 27q58 0 114 -19t115.5 -41.5t126 -41.5t144.5 -19h14zM1276 1735q0 -93 -89.5 -163t-219.5 -77v86q52 14 84 43t32 59q0 19 -18.5 28t-40.5 17t-40.5 21t-18.5 41q0 53 39 82 t110 29q78 0 120 -45t42 -121z" />
<glyph unicode="&#x47d;" horiz-adv-x="1823" d="M614 -20q-258 0 -390 148.5t-132 442.5q0 282 118 425t363 143q149 0 273 -60l-86 -209q-63 30 -96 36.5t-70 6.5q-186 0 -186 -342q0 -178 59.5 -271t167.5 -93q146 0 276 135q130 -135 277 -135q109 0 168 93.5t59 270.5q0 342 -186 342q-39 0 -71.5 -7t-94.5 -36 l-86 209q124 60 272 60q246 0 364 -143t118 -425q0 -291 -131 -441t-392 -150q-173 0 -297 112q-122 -112 -297 -112zM1339 1753v-194h-16q-180 0 -316 54q-103 41 -128 47.5t-50 6.5q-46 0 -67.5 -26t-32.5 -85h-182v50q0 69 17 119.5t46 81.5t80 49t135 18q58 0 114 -19 t115.5 -41.5t126 -41.5t144.5 -19h14zM1067 1419q0 -94 -91 -163.5t-218 -75.5v86q50 12 83 41.5t33 60.5q0 19 -18.5 28t-40.5 17t-40.5 21t-18.5 41q0 52 39 81t110 29q78 0 120 -44.5t42 -121.5z" />
<glyph unicode="&#x47e;" horiz-adv-x="2228" d="M1534 1235q-39 0 -84 -16.5t-113 -61.5l-88 215q60 47 137.5 78t157.5 31q268 0 416.5 -187t148.5 -526q0 -375 -164 -581.5t-462 -206.5q-107 0 -196 35.5t-173 117.5q-77 -75 -165 -114t-204 -39q-297 0 -461.5 206t-164.5 582q0 338 148.5 525.5t416.5 187.5 q81 0 158 -31t137 -78l-88 -215q-68 45 -113.5 61.5t-83.5 16.5q-128 0 -199 -121.5t-71 -347.5q0 -251 93 -383.5t269 -132.5q80 0 168 74v391h310v-381q89 -84 180 -84q176 0 268 132.5t92 383.5q0 225 -71.5 347t-198.5 122zM1528 1858v-89l-82 -172h-55l-50 103h-153 l-49 -103h-56l-49 103h-153l-50 -103h-55l-80 172v89h832z" />
<glyph unicode="&#x47f;" horiz-adv-x="1812" d="M416 0l-410 1118h320l194 -637q37 -111 49 -229h6q6 27 15 54t174 439l-139 373h319l201 -620q7 -23 17 -54t19.5 -62.5t18.5 -61t14 -50.5h9q106 151 154 348t48 500h308q0 -372 -99.5 -628.5t-322.5 -489.5h-285l-133 385l-152 -385h-325zM1292 1444v-88l-82 -172h-55 l-49 102h-154l-49 -102h-55l-49 102h-154l-49 -102h-55l-80 172v88h831z" />
<glyph unicode="&#x480;" horiz-adv-x="1386" d="M858 -20q-359 0 -549 193.5t-190 555.5q0 227 89 398.5t255.5 263.5t392.5 92q225 0 459 -103l-101 -252q-91 39 -183.5 68t-182.5 29q-195 0 -302.5 -131t-107.5 -367q0 -489 414 -489q58 0 147.5 9.5t167.5 26.5v-766h-309v472z" />
<glyph unicode="&#x481;" horiz-adv-x="1073" d="M602 -16q-252 19 -381 162.5t-129 406.5q0 298 135 442t424 144q184 0 357 -80l-88 -232q-173 66 -277 66q-126 0 -183 -84.5t-57 -253.5q0 -156 64.5 -242t183.5 -86q125 0 256 37v-756h-305v476z" />
<glyph unicode="&#x482;" horiz-adv-x="1247" d="M588 432l284 -166l-71 -123l-285 164l-180 -313l-129 74l180 315l-283 164l70 123l287 -164l198 346l-284 164l71 125l285 -164l182 313l127 -73l-182 -316l287 -164l-74 -123l-283 164z" />
<glyph unicode="&#x483;" horiz-adv-x="1141" d="M395 1241q-6 -43 -33 -68.5t-75 -25.5q-56 0 -81.5 35.5t-25.5 91.5q0 117 109 117h459q10 94 108 94q109 0 109 -115q0 -57 -27 -93t-84 -36h-459z" />
<glyph unicode="&#x484;" horiz-adv-x="1182" d="M258 1436q78 0 144.5 18.5t126 41t115.5 41.5t114 19q105 0 160 -27t86.5 -85.5t31.5 -155.5v-49h-182q-11 59 -32.5 85t-67.5 26q-30 0 -66.5 -12t-110.5 -42q-134 -55 -317 -55h-16v195h14z" />
<glyph unicode="&#x485;" horiz-adv-x="1182" d="M623 1624q71 0 110 -29t39 -82q0 -27 -18.5 -40t-41 -21.5t-41 -17t-18.5 -27.5q0 -32 34 -61t83 -41v-86q-126 6 -217.5 74.5t-91.5 164.5q0 77 42.5 121.5t119.5 44.5z" />
<glyph unicode="&#x486;" horiz-adv-x="1182" d="M770 1458q0 -94 -91 -163.5t-218 -75.5v86q48 11 82.5 40.5t34.5 61.5q0 19 -18.5 27.5t-41 17t-41 21.5t-18.5 40q0 53 39 82t110 29q78 0 120 -44.5t42 -121.5z" />
<glyph unicode="&#x488;" horiz-adv-x="2025" d="M1001 1425q93 0 149.5 -50.5t63.5 -143.5h-79q-5 44 -35 66t-99 22q-78 0 -103 -20.5t-30 -67.5h-75q11 194 208 194zM1001 -125q92 0 149.5 -51t63.5 -143h-79q-5 44 -35 66t-99 22q-78 0 -103 -20.5t-30 -67.5h-75q5 89 55 141.5t153 52.5zM1581 154q92 0 149.5 -51 t63.5 -144h-80q-5 45 -35 66.5t-98 21.5q-78 0 -103 -19.5t-30 -68.5h-76q5 90 55.5 142.5t153.5 52.5zM428 154q92 0 149.5 -51t63.5 -144h-80q-5 45 -35 66.5t-98 21.5q-78 0 -103 -19.5t-30 -68.5h-76q5 90 55.5 142.5t153.5 52.5zM1581 1141q92 0 149.5 -51t63.5 -144 h-80q-5 45 -35 66.5t-98 21.5q-78 0 -103 -19.5t-30 -68.5h-76q5 90 55.5 142.5t153.5 52.5zM428 1141q92 0 149.5 -51t63.5 -144h-80q-5 45 -35 66.5t-98 21.5q-78 0 -103 -19.5t-30 -68.5h-76q5 90 55.5 142.5t153.5 52.5zM1772 653q92 0 149.5 -52t63.5 -142h-80 q-5 44 -35 66t-98 22q-78 0 -103.5 -20t-30.5 -68h-75q11 194 209 194zM250 653q92 0 149.5 -51t63.5 -143h-80q-5 45 -35 66.5t-98 21.5q-78 0 -103 -19.5t-30 -68.5h-76q5 90 55.5 142t153.5 52z" />
<glyph unicode="&#x489;" horiz-adv-x="1958" d="M1090 -49q-17 -66 -52 -161.5t-71 -174.5h-97q53 221 70 350h139zM870 1155q19 71 55.5 171t67.5 165h97q-52 -220 -70 -350h-139zM1581 662q71 -19 171 -55.5t165 -67.5v-97q-221 53 -350 70v139zM377 442q-66 17 -161.5 52t-174.5 71v97q221 -53 350 -70v-139z M1651 1186l69 -68q-177 -110 -297 -198l-98 98l2 16q67 39 162 83t162 69zM307 -123l-69 68q177 110 297 198l98 -98l-2 -16q-155 -89 -324 -152zM324 1202l67 70q123 -198 199 -297l-98 -98l-17 2q-82 140 -151 323zM1632 -141l-67 -70q-31 50 -96 147.5t-103 149.5l98 98 l17 -2q39 -69 84 -166t67 -157z" />
<glyph unicode="&#x48a;" horiz-adv-x="1876" d="M184 1462h279v-706l-4 -189l-10 -215h6l675 1110h371v-1196h334l-178 -692h-344l188 426h-276v702q0 141 18 418h-8l-678 -1120h-373v1462zM1327 1937q-19 -187 -141 -272.5t-352 -85.5q-237 0 -350.5 82t-127.5 276h273q7 -103 51.5 -144.5t159.5 -41.5q99 0 149.5 45.5 t61.5 140.5h276zM1686 0z" />
<glyph unicode="&#x48b;" horiz-adv-x="1642" d="M455 1118v-442q0 -70 -23 -342l516 784h367v-895h299l-146 -624h-290l137 401h-295v446q0 119 20 336l-514 -782h-366v1118h295zM1225 1599q-21 -189 -142.5 -273.5t-351.5 -84.5q-161 0 -262.5 37t-153 112t-61.5 209h272q9 -108 53.5 -147t157.5 -39q103 0 153 47.5 t58 138.5h277zM1475 0z" />
<glyph unicode="&#x48c;" horiz-adv-x="1262" d="M494 1311h299v-254h-299v-156h122q286 0 442 -116t156 -328q0 -457 -604 -457h-426v1057h-137v254h137v151h310v-151zM494 254h104q157 0 230 50.5t73 152.5q0 101 -74 145.5t-254 44.5h-79v-393z" />
<glyph unicode="&#x48d;" horiz-adv-x="1257" d="M4 1333h156v223h305v-223h377v-198h-377v-449h215q258 0 382 -82t124 -248q0 -356 -494 -356h-532v1135h-156v198zM881 352q0 65 -52 94t-155 29h-209v-264h213q203 0 203 141z" />
<glyph unicode="&#x48e;" horiz-adv-x="1286" d="M1194 1006q0 -129 -47.5 -229.5t-140.5 -162.5l88 -125l-152 -112l-115 164q-86 -21 -200 -21h-133v-520h-310v1462h467q266 0 404.5 -114.5t138.5 -341.5zM494 774h145l23 2l-58 82l154 111l82 -117q41 53 41 143q0 109 -59.5 161t-186.5 52h-141v-434z" />
<glyph unicode="&#x48f;" horiz-adv-x="1296" d="M774 -20q-197 0 -309 143h-16q16 -140 16 -162v-453h-305v1610h248l43 -145h16q54 83 135 124.5t180 41.5q198 0 310 -153t112 -425q0 -303 -145 -463l94 -123l-158 -118l-108 139q-52 -16 -113 -16zM684 895q-113 0 -165 -69.5t-54 -229.5v-33q0 -180 53.5 -258 t169.5 -78h17l18 2l-102 127l167 123l82 -100q23 78 23 186q0 165 -50.5 247.5t-158.5 82.5z" />
<glyph unicode="&#x490;" horiz-adv-x="1190" d="M494 0h-310v1462h697v310h268v-566h-655v-1206z" />
<glyph unicode="&#x491;" horiz-adv-x="1049" d="M465 0h-305v1118h540v305h275v-534h-510v-889z" />
<glyph unicode="&#x492;" horiz-adv-x="1145" d="M1104 1462v-254h-610v-358h401v-254h-401v-596h-310v596h-137v254h137v612h920z" />
<glyph unicode="&#x493;" horiz-adv-x="1006" d="M958 1118v-248h-512v-217h332v-235h-332v-418h-305v418h-137v235h137v465h817z" />
<glyph unicode="&#x494;" horiz-adv-x="1503" d="M621 537q-53 0 -127 -13v-524h-310v1462h920v-254h-610v-401q107 12 256 12q193 0 345.5 -85t229 -236.5t76.5 -356.5q0 -195 -69.5 -343.5t-195 -229t-278.5 -80.5q-110 0 -179.5 11t-143.5 36v272q129 -47 262 -47q139 0 220 102.5t81 278.5q0 196 -115 296t-362 100z " />
<glyph unicode="&#x495;" horiz-adv-x="1233" d="M1161 68q0 -179 -61 -308t-173 -195.5t-259 -66.5q-142 0 -256 51v263q45 -24 105.5 -39t109.5 -15q116 0 178.5 81.5t62.5 232.5q0 305 -315 305q-42 0 -88 -6v-371h-305v1118h817v-248h-512v-241q74 12 149 12q158 0 283.5 -70t194.5 -200t69 -303z" />
<glyph unicode="&#x496;" horiz-adv-x="2107" d="M520 760l-491 702h319l473 -708v708h289v-708l473 708h320l-492 -702l338 -494h317v-692h-299v426h-168l-489 741v-741h-289v741l-489 -741h-332zM1931 0z" />
<glyph unicode="&#x497;" horiz-adv-x="1929" d="M752 575v543h284v-543l398 543h315l-412 -536l277 -359h266v-624h-274v401h-144l-426 567v-567h-284v567l-426 -567h-326l451 582l-412 536h315zM1788 0z" />
<glyph unicode="&#x498;" horiz-adv-x="1327" d="M1194 1120q0 -141 -100 -233t-271 -117v-6q201 -20 308.5 -111t107.5 -237q0 -202 -163.5 -319t-452.5 -117q-322 0 -517 79v260q94 -45 220.5 -70.5t236.5 -25.5q369 0 369 215q0 97 -118.5 149t-350.5 52h-137v242h123q232 0 338 44t106 146q0 75 -66.5 119.5 t-199.5 44.5q-206 0 -398 -119l-135 207q125 83 265 121.5t311 38.5q239 0 381.5 -100t142.5 -263zM619 -227q0 52 -39 106.5t-109 120.5h179q79 -60 112 -97.5t50.5 -77.5t17.5 -87q0 -103 -69 -166.5t-181 -63.5q-74 0 -156 23v178q60 -18 115 -18q35 0 57.5 20t22.5 62z " />
<glyph unicode="&#x499;" horiz-adv-x="1137" d="M438 688q173 0 245.5 28t72.5 89q0 54 -53 81t-175 27q-77 0 -174.5 -19t-177.5 -52l-90 213q119 45 231 64.5t250 19.5q209 0 335 -80t126 -217q0 -189 -223 -246v-10q137 -34 195.5 -96.5t58.5 -163.5q0 -102 -66 -181t-191 -122t-294 -43q-280 0 -430 69v252 q86 -40 188.5 -63t198.5 -23q149 0 223 33.5t74 95.5q0 68 -78 100.5t-240 32.5h-118v211h112zM510 -227q0 52 -39 106.5t-109 120.5h179q79 -60 112 -97.5t50.5 -77.5t17.5 -87q0 -103 -69 -166.5t-181 -63.5q-74 0 -156 23v178q60 -18 115 -18q35 0 57.5 20t22.5 62z" />
<glyph unicode="&#x49a;" horiz-adv-x="1548" d="M1180 266h327v-692h-299v426h-184l-530 741v-741h-310v1462h310v-708l524 708h330l-533 -702zM1376 0z" />
<glyph unicode="&#x49b;" horiz-adv-x="1362" d="M893 1118h336l-443 -536l297 -359h250v-624h-274v401h-137l-457 567v-567h-305v1118h305v-543zM1268 0z" />
<glyph unicode="&#x49c;" horiz-adv-x="1360" d="M618 612l-124 -90v-522h-310v1462h310v-669l122 172l2 2v354h134v-186l260 327h344l-510 -647l514 -815h-352l-256 412v-222h-134v422z" />
<glyph unicode="&#x49d;" horiz-adv-x="1227" d="M160 1118h284v-543l99 123v316h145v-129l184 233h316l-443 -536l482 -582h-326l-215 266v-176h-145v356l-97 121v-567h-284v1118z" />
<glyph unicode="&#x49e;" horiz-adv-x="1317" d="M4 1327h137v135h310v-135h137v-254h-137v-280l122 172l396 497h344l-510 -647l514 -815h-352l-383 616l-131 -94v-522h-310v1073h-137v254z" />
<glyph unicode="&#x49f;" horiz-adv-x="1270" d="M4 1395h156v161h305v-161h315v-199h-315v-334l-16 -254h4l133 170l313 340h344l-444 -485l471 -633h-352l-322 453l-131 -105v-348h-305v1196h-156v199z" />
<glyph unicode="&#x4a0;" horiz-adv-x="1501" d="M0 1462h635v-669l123 172l395 497h344l-510 -647l514 -815h-352l-383 616l-131 -94v-522h-309v1204h-326v258zM141 0z" />
<glyph unicode="&#x4a1;" horiz-adv-x="1423" d="M0 1118h641v-543l428 543h315l-442 -536l481 -582h-325l-457 567v-567h-285v889h-356v229zM196 0z" />
<glyph unicode="&#x4a2;" horiz-adv-x="1722" d="M1382 266h299v-692h-299v426h-309v631h-579v-631h-310v1462h310v-573h579v573h309v-1196zM1567 0z" />
<glyph unicode="&#x4a3;" horiz-adv-x="1522" d="M465 1118v-430h426v430h305v-895h277v-624h-275v401h-307v461h-426v-461h-305v1118h305zM1356 0z" />
<glyph unicode="&#x4a4;" horiz-adv-x="1708" d="M1708 1204h-326v-1204h-309v631h-579v-631h-310v1462h310v-573h579v573h635v-258zM1567 0z" />
<glyph unicode="&#x4a5;" horiz-adv-x="1552" d="M465 1118v-430h426v430h661v-229h-356v-889h-305v461h-426v-461h-305v1118h305zM1356 0z" />
<glyph unicode="&#x4a6;" horiz-adv-x="2304" d="M1300 803q115 16 281 16q185 0 330 -85.5t218 -236t73 -356.5q0 -195 -69.5 -343.5t-195 -229t-278.5 -80.5q-109 0 -176.5 10t-147.5 37v272q129 -47 262 -47q131 0 216 106.5t85 274.5q0 196 -106.5 296t-335.5 100q-58 0 -156 -21v-516h-309v1204h-497v-1204h-310 v1462h1116v-659z" />
<glyph unicode="&#x4a7;" horiz-adv-x="1821" d="M1749 68q0 -179 -60.5 -307t-172.5 -195.5t-261 -67.5q-142 0 -256 51v263q45 -24 105.5 -39t109.5 -15q115 0 178.5 81.5t63.5 232.5q0 149 -77.5 227t-227.5 78h-6v-377h-305v889h-375v-889h-305v1118h985v-481l80 4q151 0 271.5 -70.5t186.5 -200t66 -302.5z" />
<glyph unicode="&#x4a8;" horiz-adv-x="1591" d="M1485 678q0 -143 -49 -266.5t-162 -235.5q46 -16 112 -16q76 0 144 22v-241q-62 -25 -178 -25q-173 0 -318 98q-104 -34 -250 -34q-310 0 -487.5 195t-177.5 538q0 381 162.5 576.5t480.5 195.5q56 0 129 -12.5t119 -30.5l-78 -240q-92 29 -170 29q-330 0 -330 -508 q0 -230 100 -355.5t277 -125.5q25 0 31 4q-63 76 -101.5 197.5t-38.5 246.5q0 218 99.5 331.5t290.5 113.5q187 0 291 -121t104 -336zM1208 670q0 233 -112 233q-55 0 -86 -61.5t-31 -167.5q0 -122 28 -209.5t66 -136.5q61 56 98 148.5t37 193.5z" />
<glyph unicode="&#x4a9;" horiz-adv-x="1343" d="M1245 508q0 -118 -43 -211t-121 -145q28 -7 70 -7q59 0 123 17v-211q-72 -23 -156 -23q-147 0 -274 86q-98 -34 -232 -34q-237 0 -378.5 155.5t-141.5 419.5q0 276 136.5 430t385.5 154q42 0 102.5 -11t108.5 -30l-67 -228q-88 25 -144 25q-111 0 -163 -83t-52 -267 q0 -152 55.5 -236t163.5 -84q25 0 37 4q-42 79 -56.5 143.5t-14.5 141.5q0 167 83 255.5t248 88.5q152 0 241 -92.5t89 -257.5zM1004 508q0 57 -22 93t-67 36q-90 0 -90 -131q0 -126 76 -213q103 64 103 215z" />
<glyph unicode="&#x4aa;" horiz-adv-x="1305" d="M805 1225q-175 0 -271 -131.5t-96 -366.5q0 -489 367 -489q154 0 373 77v-260q-180 -75 -402 -75q-319 0 -488 193.5t-169 555.5q0 228 83 399.5t238.5 263t364.5 91.5q213 0 428 -103l-100 -252q-82 39 -165 68t-163 29zM774 -227q0 52 -39 106.5t-109 120.5h179 q79 -60 112 -97.5t50.5 -77.5t17.5 -87q0 -103 -69 -166.5t-181 -63.5q-74 0 -156 23v178q60 -18 115 -18q35 0 57.5 20t22.5 62z" />
<glyph unicode="&#x4ab;" horiz-adv-x="1053" d="M614 -20q-522 0 -522 573q0 285 142 435.5t407 150.5q194 0 348 -76l-90 -236q-72 29 -134 47.5t-124 18.5q-238 0 -238 -338q0 -328 238 -328q88 0 163 23.5t150 73.5v-261q-74 -47 -149.5 -65t-190.5 -18zM621 -227q0 52 -39 106.5t-109 120.5h179q79 -60 112 -97.5 t50.5 -77.5t17.5 -87q0 -103 -69 -166.5t-181 -63.5q-74 0 -156 23v178q60 -18 115 -18q35 0 57.5 20t22.5 62z" />
<glyph unicode="&#x4ac;" horiz-adv-x="1186" d="M748 266h299v-692h-299v426h-310v1204h-397v258h1104v-258h-397v-938z" />
<glyph unicode="&#x4ad;" horiz-adv-x="1126" d="M1085 1118v-229h-366v-666h274v-624h-274v401h-305v889h-367v229h1038z" />
<glyph unicode="&#x4ae;" horiz-adv-x="1278" d="M639 860l305 602h334l-485 -893v-569h-308v559l-485 903h336z" />
<glyph unicode="&#x4af;" horiz-adv-x="1176" d="M741 -492h-307v492l-434 1118h336l176 -504q26 -73 57 -216l13 -60h12q36 180 70 276l178 504h334l-435 -1118v-492z" />
<glyph unicode="&#x4b0;" horiz-adv-x="1278" d="M639 860l305 602h334l-485 -893v-41h319v-258h-319v-270h-308v270h-319v258h319v31l-485 903h336z" />
<glyph unicode="&#x4b1;" horiz-adv-x="1176" d="M1032 0v-229h-291v-263h-307v263h-291v229h291l-434 1118h336l176 -504q26 -73 57 -216l13 -60h12q36 180 70 276l178 504h334l-435 -1118h291z" />
<glyph unicode="&#x4b2;" horiz-adv-x="1522" d="M1188 266h293v-692h-299v426h-170l-340 553l-340 -553h-332l485 754l-454 708h342l315 -526l309 526h334l-459 -725zM1366 0z" />
<glyph unicode="&#x4b3;" horiz-adv-x="1311" d="M389 571l-360 547h346l217 -356l219 356h346l-364 -547l231 -348h258v-624h-274v401h-181l-235 383l-236 -383h-346zM1174 0zM1184 0z" />
<glyph unicode="&#x4b4;" horiz-adv-x="1905" d="M408 0v1204h-367v258h1083v-258h-407v-946h538v1204h310v-1196h299v-692h-299v426h-1157z" />
<glyph unicode="&#x4b5;" horiz-adv-x="1620" d="M901 1118v-229h-295v-660h406v889h305v-895h274v-624h-274v401h-1016v889h-254v229h854z" />
<glyph unicode="&#x4b6;" horiz-adv-x="1647" d="M1307 266h299v-692h-299v426h-310v565q-154 -52 -256.5 -71t-195.5 -19q-209 0 -322.5 100.5t-113.5 282.5v604h309v-516q0 -106 49 -159.5t166 -53.5q82 0 163.5 16.5t200.5 57.5v655h310v-1196zM1491 0z" />
<glyph unicode="&#x4b7;" horiz-adv-x="1487" d="M428 1118v-409q0 -146 135 -146q88 0 163.5 20t152.5 52v483h305v-895h274v-624h-274v401h-305v444q-106 -56 -197 -79t-176 -23q-183 0 -283 93.5t-100 266.5v416h305zM1343 0z" />
<glyph unicode="&#x4b8;" horiz-adv-x="1491" d="M625 477l-40 -2h-40q-209 0 -322.5 100.5t-113.5 282.5v604h309v-516q0 -110 49 -160.5t158 -52.5v328h133v-318q89 13 239 64v655h310v-1462h-310v565q-129 -45 -239 -69v-324h-133v305z" />
<glyph unicode="&#x4b9;" horiz-adv-x="1343" d="M582 346q-25 -4 -76 -4q-183 0 -283 93.5t-100 266.5v416h305v-409q0 -146 135 -146h19v256h125v-241q78 16 172 57v483h305v-1118h-305v444q-105 -54 -172 -73v-242h-125v217z" />
<glyph unicode="&#x4ba;" horiz-adv-x="1491" d="M184 1462h310v-565q147 51 254 70.5t198 19.5q206 0 321 -99.5t115 -283.5v-604h-309v516q0 106 -49 159.5t-166 53.5q-79 0 -162.5 -16t-201.5 -58v-655h-310v1462z" />
<glyph unicode="&#x4bb;" horiz-adv-x="1364" d="M915 0v420q0 135 -135 135q-144 0 -315 -72v-483h-305v1118h305v-444q106 56 196 79t177 23q183 0 283 -93.5t100 -266.5v-416h-306z" />
<glyph unicode="&#x4bc;" horiz-adv-x="1942" d="M1122 238q138 0 304 46.5t276 114.5v-278q-125 -75 -267.5 -108t-314.5 -33q-318 0 -509 170.5t-220 480.5h-63q-163 0 -245.5 69t-82.5 191q0 116 53 205h234q-8 -17 -17.5 -53t-9.5 -66q0 -88 96 -88h41q37 284 215 440t471 156q348 0 521.5 -197.5t173.5 -585.5v-71 h-1067q13 -193 118 -293t293 -100zM1083 1227q-159 0 -257.5 -89.5t-110.5 -248.5h741q0 176 -91 257t-282 81z" />
<glyph unicode="&#x4bd;" horiz-adv-x="1464" d="M334 686q33 219 172 336t358 117q242 0 377 -134.5t135 -373.5v-148h-743q5 -130 79.5 -203t209.5 -73q106 0 199.5 21.5t191.5 66.5v-236q-78 -39 -173 -59t-229 -20q-259 0 -411.5 130.5t-171.5 372.5q-328 0 -328 224q0 96 41 165h205q-25 -55 -25 -108q0 -78 96 -78 h17zM866 922q-94 0 -156 -57.5t-71 -178.5h451q-2 112 -61.5 174t-162.5 62z" />
<glyph unicode="&#x4be;" horiz-adv-x="1942" d="M956 -8q-246 40 -392.5 204.5t-172.5 434.5h-63q-163 0 -245.5 69t-82.5 191q0 116 53 205h234q-8 -17 -17.5 -53t-9.5 -66q0 -88 96 -88h41q37 284 215 440t471 156q348 0 521.5 -197.5t173.5 -585.5v-71h-1067q13 -193 118 -293t293 -100q138 0 304 46.5t276 114.5 v-278q-109 -64 -216 -95t-233 -40v-412h-297v418zM1083 1227q-159 0 -257.5 -89.5t-110.5 -248.5h741q0 176 -91 257t-282 81z" />
<glyph unicode="&#x4bf;" horiz-adv-x="1464" d="M733 -2q-181 40 -285.5 164t-119.5 321q-328 0 -328 224q0 96 41 165h205q-25 -55 -25 -108q0 -78 96 -78h17q33 219 172 336t358 117q242 0 377 -134.5t135 -373.5v-148h-743q5 -130 79.5 -203t209.5 -73q106 0 199.5 21.5t191.5 66.5v-236q-127 -63 -305 -75v-385h-275 v399zM866 922q-94 0 -156 -57.5t-71 -178.5h451q-2 112 -61.5 174t-162.5 62z" />
<glyph unicode="&#x4c0;" horiz-adv-x="678" d="M184 0v1462h310v-1462h-310z" />
<glyph unicode="&#x4c1;" horiz-adv-x="1931" d="M520 760l-491 702h319l473 -708v708h289v-708l473 708h320l-492 -702l520 -760h-332l-489 741v-741h-289v741l-489 -741h-332zM1448 1937q-19 -187 -141 -272.5t-352 -85.5q-237 0 -350.5 82t-127.5 276h273q7 -103 51.5 -144.5t159.5 -41.5q101 0 150.5 45.5t60.5 140.5 h276z" />
<glyph unicode="&#x4c2;" horiz-adv-x="1788" d="M752 575v543h284v-543l398 543h315l-412 -536l451 -582h-326l-426 567v-567h-284v567l-426 -567h-326l451 582l-412 536h315zM1378 1599q-19 -187 -141 -272.5t-352 -85.5q-237 0 -350.5 82t-127.5 276h273q7 -103 51.5 -144.5t159.5 -41.5q101 0 150.5 45.5t60.5 140.5 h276z" />
<glyph unicode="&#x4c3;" horiz-adv-x="1556" d="M680 537q-75 0 -186 -25v-512h-310v1462h310v-704l145 207l393 497h344l-577 -688h4q200 0 351.5 -78t225.5 -220t74 -335q0 -195 -69.5 -343.5t-195 -229t-278.5 -80.5q-110 0 -179.5 11t-143.5 36v272q129 -47 262 -47q142 0 221.5 102.5t79.5 278.5q0 195 -113 295.5 t-358 100.5z" />
<glyph unicode="&#x4c4;" horiz-adv-x="1354" d="M1272 68q0 -179 -60.5 -307t-172.5 -195.5t-261 -67.5q-142 0 -256 51v263q45 -24 105.5 -39t109.5 -15q116 0 179 82.5t63 231.5q0 148 -79 226.5t-232 78.5q-50 0 -111 -10.5t-92 -22.5v-344h-305v1118h305v-493l434 493h344l-473 -500q229 0 365.5 -146.5 t136.5 -403.5z" />
<glyph unicode="&#x4c5;" horiz-adv-x="1716" d="M1341 0h-309v1204h-358l-16 -134q-62 -511 -109.5 -717.5t-138.5 -290.5t-246 -82q-84 0 -148 22v254q58 -20 109 -20q53 0 84 48.5t58.5 180t73 431t77.5 566.5h923v-1196h334l-178 -692h-344zM1526 0z" />
<glyph unicode="&#x4c6;" horiz-adv-x="1489" d="M1161 223h299l-145 -624h-291l137 401h-305v889h-281q-32 -375 -78 -559.5t-122.5 -267t-200.5 -82.5q-106 0 -174 32v244q49 -20 98 -20q57 0 95.5 82t69 273.5t52.5 526.5h846v-895zM1321 0z" />
<glyph unicode="&#x4c7;" horiz-adv-x="1567" d="M1382 90q0 -177 -67 -315t-190.5 -212.5t-284.5 -74.5q-191 0 -324 47v272q75 -26 141 -36.5t148 -10.5q126 0 197 96.5t71 268.5v506h-579v-631h-310v1462h310v-573h579v573h309v-1372z" />
<glyph unicode="&#x4c8;" horiz-adv-x="1356" d="M465 461v-461h-305v1118h305v-430h426v430h305v-1095q0 -247 -132 -386t-364 -139q-76 0 -135 12t-123 44v262q112 -58 226 -58q108 0 163.5 74t59.5 215v414h-426z" />
<glyph unicode="&#x4c9;" horiz-adv-x="1757" d="M1382 266h334l-178 -692h-344l188 426h-309v631h-579v-631h-310v1462h310v-573h579v573h309v-1196zM1567 0z" />
<glyph unicode="&#x4ca;" horiz-adv-x="1524" d="M465 1118v-430h426v430h305v-895h299l-145 -624h-291l137 401h-305v461h-426v-461h-305v1118h305zM1356 0z" />
<glyph unicode="&#x4cb;" horiz-adv-x="1491" d="M1307 0h-258v-426h-299v692h247v299q-154 -52 -256.5 -71t-195.5 -19q-209 0 -322.5 100.5t-113.5 282.5v604h309v-516q0 -106 49 -159.5t166 -53.5q82 0 163.5 16.5t200.5 57.5v655h310v-1462z" />
<glyph unicode="&#x4cc;" horiz-adv-x="1343" d="M428 1118v-409q0 -146 135 -146q88 0 163.5 20t152.5 52v483h305v-1118h-260v-401h-275v624h230v221q-106 -56 -197 -79t-176 -23q-183 0 -283 93.5t-100 266.5v416h305z" />
<glyph unicode="&#x4cd;" horiz-adv-x="2122" d="M803 0l-352 1147h-9q19 -350 19 -467v-680h-277v1462h422l346 -1118h6l367 1118h422v-1196h334l-178 -692h-344l188 426h-289v692q0 49 1.5 113t13.5 340h-9l-377 -1145h-284zM1931 0z" />
<glyph unicode="&#x4ce;" horiz-adv-x="1896" d="M1569 223h299l-146 -624h-290l137 401h-285v881l-16 -62q-54 -211 -97 -319l-198 -500h-217l-201 504q-43 110 -92 309l-19 68v-881h-284v1118h420l192 -477q30 -77 55.5 -177t34.5 -171q33 150 51.5 215.5t40.5 120.5t199 489h416v-895zM1729 0z" />
<glyph unicode="&#x4cf;" horiz-adv-x="678" d="M184 0v1462h310v-1462h-310z" />
<glyph unicode="&#x4d0;" horiz-adv-x="1413" d="M1079 0l-106 348h-533l-106 -348h-334l516 1468h379l518 -1468h-334zM899 608q-147 473 -165.5 535t-26.5 98q-33 -128 -189 -633h381zM1192 1937q-19 -187 -141 -272.5t-352 -85.5q-237 0 -350.5 82t-127.5 276h273q7 -103 51.5 -144.5t159.5 -41.5q101 0 150.5 45.5 t60.5 140.5h276z" />
<glyph unicode="&#x4d1;" horiz-adv-x="1237" d="M870 0l-59 152h-8q-77 -97 -158.5 -134.5t-212.5 -37.5q-161 0 -253.5 92t-92.5 262q0 178 124.5 262.5t375.5 93.5l194 6v49q0 170 -174 170q-134 0 -315 -81l-101 206q193 101 428 101q225 0 345 -98t120 -298v-745h-213zM780 518l-118 -4q-133 -4 -198 -48t-65 -134 q0 -129 148 -129q106 0 169.5 61t63.5 162v92zM1116 1599q-19 -187 -141 -272.5t-352 -85.5q-237 0 -350.5 82t-127.5 276h273q7 -103 51.5 -144.5t159.5 -41.5q101 0 150.5 45.5t60.5 140.5h276z" />
<glyph unicode="&#x4d2;" horiz-adv-x="1413" d="M1079 0l-106 348h-533l-106 -348h-334l516 1468h379l518 -1468h-334zM899 608q-147 473 -165.5 535t-26.5 98q-33 -128 -189 -633h381zM365 1743q0 65 37.5 100t101.5 35q66 0 103.5 -37t37.5 -98q0 -60 -38 -96.5t-103 -36.5q-64 0 -101.5 35t-37.5 98zM768 1743 q0 70 40.5 102.5t100.5 32.5q65 0 103.5 -36t38.5 -99q0 -61 -39 -97t-103 -36q-60 0 -100.5 32.5t-40.5 100.5z" />
<glyph unicode="&#x4d3;" horiz-adv-x="1237" d="M870 0l-59 152h-8q-77 -97 -158.5 -134.5t-212.5 -37.5q-161 0 -253.5 92t-92.5 262q0 178 124.5 262.5t375.5 93.5l194 6v49q0 170 -174 170q-134 0 -315 -81l-101 206q193 101 428 101q225 0 345 -98t120 -298v-745h-213zM780 518l-118 -4q-133 -4 -198 -48t-65 -134 q0 -129 148 -129q106 0 169.5 61t63.5 162v92zM274 1405q0 65 37.5 100t101.5 35q66 0 103.5 -37t37.5 -98q0 -60 -38 -96.5t-103 -36.5q-64 0 -101.5 35t-37.5 98zM677 1405q0 70 40.5 102.5t100.5 32.5q65 0 103.5 -36t38.5 -99q0 -61 -39 -97t-103 -36q-60 0 -100.5 32.5 t-40.5 100.5z" />
<glyph unicode="&#x4d4;" horiz-adv-x="1950" d="M1829 0h-873v348h-491l-150 -348h-315l655 1462h1174v-254h-563v-321h526v-254h-526v-377h563v-256zM578 608h378v590h-127z" />
<glyph unicode="&#x4d5;" horiz-adv-x="1878" d="M1329 -20q-137 0 -249.5 50.5t-184.5 155.5q-98 -117 -196.5 -161.5t-256.5 -44.5q-161 0 -258.5 94.5t-97.5 259.5q0 178 121 262.5t362 93.5l191 6v84q0 69 -44.5 102t-121.5 33q-140 0 -305 -77l-99 202q189 101 422 101q227 0 342 -131q66 64 152.5 96.5t206.5 32.5 q221 0 349 -137.5t128 -370.5v-148h-723q5 -130 77 -203t202 -73q196 0 380 88v-236q-79 -39 -171 -59t-226 -20zM760 518l-113 -4q-124 -4 -186 -47.5t-62 -134.5q0 -129 140 -129q101 0 161 61t60 162v92zM1307 922q-217 0 -234 -236h430q-2 112 -55 174t-141 62z" />
<glyph unicode="&#x4d6;" horiz-adv-x="1147" d="M1026 0h-842v1462h842v-254h-532v-321h495v-254h-495v-377h532v-256zM1089 1937q-19 -187 -141 -272.5t-352 -85.5q-237 0 -350.5 82t-127.5 276h273q7 -103 51.5 -144.5t159.5 -41.5q101 0 150.5 45.5t60.5 140.5h276z" />
<glyph unicode="&#x4d7;" horiz-adv-x="1210" d="M623 922q-97 0 -152 -61.5t-63 -174.5h428q-2 113 -59 174.5t-154 61.5zM666 -20q-270 0 -422 149t-152 422q0 281 140.5 434.5t388.5 153.5q237 0 369 -135t132 -373v-148h-721q5 -130 77 -203t202 -73q101 0 191 21t188 67v-236q-80 -40 -171 -59.5t-222 -19.5z M1104 1599q-19 -187 -141 -272.5t-352 -85.5q-237 0 -350.5 82t-127.5 276h273q7 -103 51.5 -144.5t159.5 -41.5q101 0 150.5 45.5t60.5 140.5h276z" />
<glyph unicode="&#x4d8;" horiz-adv-x="1673" d="M819 1227q-148 0 -307.5 -45.5t-271.5 -116.5v268q139 83 278.5 117.5t302.5 34.5q346 0 539.5 -201t193.5 -555t-182 -551.5t-514 -197.5q-344 0 -519 195.5t-175 586.5v72h1067q-13 192 -118.5 292.5t-293.5 100.5zM858 238q163 0 260.5 91t108.5 246h-742 q0 -175 90 -256t283 -81z" />
<glyph unicode="&#x4d9;" horiz-adv-x="1231" d="M602 197q99 0 158 59t69 176h-450q2 -110 60 -172.5t163 -62.5zM557 1139q276 0 431 -149.5t155 -422.5q0 -279 -141.5 -433t-397.5 -154q-241 0 -376.5 133.5t-135.5 373.5v148h744q-5 130 -80 203t-209 73q-99 0 -191.5 -19t-199.5 -69v236q88 44 183 62t218 18z" />
<glyph unicode="&#x4da;" horiz-adv-x="1673" d="M819 1227q-148 0 -307.5 -45.5t-271.5 -116.5v268q139 83 278.5 117.5t302.5 34.5q346 0 539.5 -201t193.5 -555t-182 -551.5t-514 -197.5q-344 0 -519 195.5t-175 586.5v72h1067q-13 192 -118.5 292.5t-293.5 100.5zM858 238q163 0 260.5 91t108.5 246h-742 q0 -175 90 -256t283 -81zM517 1743q0 65 37.5 100t101.5 35q66 0 103.5 -37t37.5 -98q0 -60 -38 -96.5t-103 -36.5q-64 0 -101.5 35t-37.5 98zM920 1743q0 70 40.5 102.5t100.5 32.5q65 0 103.5 -36t38.5 -99q0 -61 -39 -97t-103 -36q-60 0 -100.5 32.5t-40.5 100.5z" />
<glyph unicode="&#x4db;" horiz-adv-x="1231" d="M602 197q99 0 158 59t69 176h-450q2 -110 60 -172.5t163 -62.5zM557 1139q276 0 431 -149.5t155 -422.5q0 -279 -141.5 -433t-397.5 -154q-241 0 -376.5 133.5t-135.5 373.5v148h744q-5 130 -80 203t-209 73q-99 0 -191.5 -19t-199.5 -69v236q88 44 183 62t218 18z M278 1405q0 65 37.5 100t101.5 35q66 0 103.5 -37t37.5 -98q0 -60 -38 -96.5t-103 -36.5q-64 0 -101.5 35t-37.5 98zM681 1405q0 70 40.5 102.5t100.5 32.5q65 0 103.5 -36t38.5 -99q0 -61 -39 -97t-103 -36q-60 0 -100.5 32.5t-40.5 100.5z" />
<glyph unicode="&#x4dc;" horiz-adv-x="1931" d="M520 760l-491 702h319l473 -708v708h289v-708l473 708h320l-492 -702l520 -760h-332l-489 741v-741h-289v741l-489 -741h-332zM623 1743q0 65 37.5 100t101.5 35q66 0 103.5 -37t37.5 -98q0 -60 -38 -96.5t-103 -36.5q-64 0 -101.5 35t-37.5 98zM1026 1743 q0 70 40.5 102.5t100.5 32.5q65 0 103.5 -36t38.5 -99q0 -61 -39 -97t-103 -36q-60 0 -100.5 32.5t-40.5 100.5z" />
<glyph unicode="&#x4dd;" horiz-adv-x="1788" d="M752 575v543h284v-543l398 543h315l-412 -536l451 -582h-326l-426 567v-567h-284v567l-426 -567h-326l451 582l-412 536h315zM551 1405q0 65 37.5 100t101.5 35q66 0 103.5 -37t37.5 -98q0 -60 -38 -96.5t-103 -36.5q-64 0 -101.5 35t-37.5 98zM954 1405q0 70 40.5 102.5 t100.5 32.5q65 0 103.5 -36t38.5 -99q0 -61 -39 -97t-103 -36q-60 0 -100.5 32.5t-40.5 100.5z" />
<glyph unicode="&#x4de;" horiz-adv-x="1327" d="M1194 1120q0 -141 -100 -233t-271 -117v-6q201 -20 308.5 -111t107.5 -237q0 -202 -163.5 -319t-452.5 -117q-322 0 -517 79v260q94 -45 220.5 -70.5t236.5 -25.5q369 0 369 215q0 97 -118.5 149t-350.5 52h-137v242h123q232 0 338 44t106 146q0 75 -66.5 119.5 t-199.5 44.5q-206 0 -398 -119l-135 207q125 83 265 121.5t311 38.5q239 0 381.5 -100t142.5 -263zM324 1743q0 65 37.5 100t101.5 35q66 0 103.5 -37t37.5 -98q0 -60 -38 -96.5t-103 -36.5q-64 0 -101.5 35t-37.5 98zM727 1743q0 70 40.5 102.5t100.5 32.5q65 0 103.5 -36 t38.5 -99q0 -61 -39 -97t-103 -36q-60 0 -100.5 32.5t-40.5 100.5z" />
<glyph unicode="&#x4df;" horiz-adv-x="1137" d="M438 688q173 0 245.5 28t72.5 89q0 54 -53 81t-175 27q-77 0 -174.5 -19t-177.5 -52l-90 213q119 45 231 64.5t250 19.5q209 0 335 -80t126 -217q0 -189 -223 -246v-10q137 -34 195.5 -96.5t58.5 -163.5q0 -102 -66 -181t-191 -122t-294 -43q-280 0 -430 69v252 q86 -40 188.5 -63t198.5 -23q149 0 223 33.5t74 95.5q0 68 -78 100.5t-240 32.5h-118v211h112zM229 1405q0 65 37.5 100t101.5 35q66 0 103.5 -37t37.5 -98q0 -60 -38 -96.5t-103 -36.5q-64 0 -101.5 35t-37.5 98zM632 1405q0 70 40.5 102.5t100.5 32.5q65 0 103.5 -36 t38.5 -99q0 -61 -39 -97t-103 -36q-60 0 -100.5 32.5t-40.5 100.5z" />
<glyph unicode="&#x4e0;" horiz-adv-x="1210" d="M283 858l360 348h-537v256h959v-198l-432 -412q241 -10 369 -120t128 -306q0 -208 -162.5 -327t-459.5 -119q-259 0 -451 79v263q93 -44 210.5 -70.5t221.5 -26.5q167 0 249.5 52.5t82.5 166.5q0 102 -104 149.5t-311 47.5h-123v217z" />
<glyph unicode="&#x4e1;" horiz-adv-x="1190" d="M283 502l405 383h-590v233h967v-198l-442 -414q237 -26 362 -153t125 -351q0 -151 -71.5 -262.5t-208.5 -171.5t-330 -60q-251 0 -443 80v262q92 -45 205.5 -70.5t214.5 -25.5q158 0 241 67.5t83 194.5q0 138 -101 203.5t-299 65.5h-118v217z" />
<glyph unicode="&#x4e2;" horiz-adv-x="1686" d="M184 1462h279v-706l-4 -189l-10 -215h6l675 1110h371v-1462h-276v702q0 141 18 418h-8l-678 -1120h-373v1462zM502 1790h678v-211h-678v211z" />
<glyph unicode="&#x4e3;" horiz-adv-x="1475" d="M455 1118v-442q0 -70 -23 -342l516 784h367v-1118h-295v446q0 119 20 336l-514 -782h-366v1118h295zM400 1452h678v-211h-678v211z" />
<glyph unicode="&#x4e4;" horiz-adv-x="1686" d="M184 1462h279v-706l-4 -189l-10 -215h6l675 1110h371v-1462h-276v702q0 141 18 418h-8l-678 -1120h-373v1462zM500 1743q0 65 37.5 100t101.5 35q66 0 103.5 -37t37.5 -98q0 -60 -38 -96.5t-103 -36.5q-64 0 -101.5 35t-37.5 98zM903 1743q0 70 40.5 102.5t100.5 32.5 q65 0 103.5 -36t38.5 -99q0 -61 -39 -97t-103 -36q-60 0 -100.5 32.5t-40.5 100.5z" />
<glyph unicode="&#x4e5;" horiz-adv-x="1475" d="M455 1118v-442q0 -70 -23 -342l516 784h367v-1118h-295v446q0 119 20 336l-514 -782h-366v1118h295zM396 1405q0 65 37.5 100t101.5 35q66 0 103.5 -37t37.5 -98q0 -60 -38 -96.5t-103 -36.5q-64 0 -101.5 35t-37.5 98zM799 1405q0 70 40.5 102.5t100.5 32.5 q65 0 103.5 -36t38.5 -99q0 -61 -39 -97t-103 -36q-60 0 -100.5 32.5t-40.5 100.5z" />
<glyph unicode="&#x4e6;" horiz-adv-x="1630" d="M1511 733q0 -363 -180 -558t-516 -195t-516 195t-180 560t180.5 557.5t517.5 192.5t515.5 -194t178.5 -558zM444 733q0 -245 93 -369t278 -124q371 0 371 493q0 494 -369 494q-185 0 -279 -124.5t-94 -369.5zM474 1743q0 65 37.5 100t101.5 35q66 0 103.5 -37t37.5 -98 q0 -60 -38 -96.5t-103 -36.5q-64 0 -101.5 35t-37.5 98zM877 1743q0 70 40.5 102.5t100.5 32.5q65 0 103.5 -36t38.5 -99q0 -61 -39 -97t-103 -36q-60 0 -100.5 32.5t-40.5 100.5z" />
<glyph unicode="&#x4e7;" horiz-adv-x="1268" d="M403 561q0 -166 54.5 -251t177.5 -85q122 0 175.5 84.5t53.5 251.5q0 166 -54 249t-177 83q-122 0 -176 -82.5t-54 -249.5zM1176 561q0 -273 -144 -427t-401 -154q-161 0 -284 70.5t-189 202.5t-66 308q0 274 143 426t402 152q161 0 284 -70t189 -201t66 -307zM293 1405 q0 65 37.5 100t101.5 35q66 0 103.5 -37t37.5 -98q0 -60 -38 -96.5t-103 -36.5q-64 0 -101.5 35t-37.5 98zM696 1405q0 70 40.5 102.5t100.5 32.5q65 0 103.5 -36t38.5 -99q0 -61 -39 -97t-103 -36q-60 0 -100.5 32.5t-40.5 100.5z" />
<glyph unicode="&#x4e8;" horiz-adv-x="1630" d="M1511 733q0 -363 -180 -558t-516 -195t-516 195t-180 560t180.5 557.5t517.5 192.5t515.5 -194t178.5 -558zM815 240q163 0 257.5 96t113.5 285h-744q20 -180 111.5 -280.5t261.5 -100.5zM817 1227q-158 0 -251 -87t-120 -261h736q-25 169 -116.5 258.5t-248.5 89.5z" />
<glyph unicode="&#x4e9;" horiz-adv-x="1268" d="M1176 561q0 -273 -144 -427t-401 -154q-161 0 -284 70.5t-189 202.5t-66 308q0 274 143 426t402 152q161 0 284 -70t189 -201t66 -307zM635 225q97 0 153 58t70 174h-450q15 -116 70 -174t157 -58zM633 893q-98 0 -154 -56.5t-71 -168.5h450q-14 112 -68.5 168.5 t-156.5 56.5z" />
<glyph unicode="&#x4ea;" horiz-adv-x="1630" d="M1511 733q0 -363 -180 -558t-516 -195t-516 195t-180 560t180.5 557.5t517.5 192.5t515.5 -194t178.5 -558zM815 240q163 0 257.5 96t113.5 285h-744q20 -180 111.5 -280.5t261.5 -100.5zM817 1227q-158 0 -251 -87t-120 -261h736q-25 169 -116.5 258.5t-248.5 89.5z M476 1743q0 65 37.5 100t101.5 35q66 0 103.5 -37t37.5 -98q0 -60 -38 -96.5t-103 -36.5q-64 0 -101.5 35t-37.5 98zM879 1743q0 70 40.5 102.5t100.5 32.5q65 0 103.5 -36t38.5 -99q0 -61 -39 -97t-103 -36q-60 0 -100.5 32.5t-40.5 100.5z" />
<glyph unicode="&#x4eb;" horiz-adv-x="1268" d="M1176 561q0 -273 -144 -427t-401 -154q-161 0 -284 70.5t-189 202.5t-66 308q0 274 143 426t402 152q161 0 284 -70t189 -201t66 -307zM635 225q97 0 153 58t70 174h-450q15 -116 70 -174t157 -58zM633 893q-98 0 -154 -56.5t-71 -168.5h450q-14 112 -68.5 168.5 t-156.5 56.5zM291 1405q0 65 37.5 100t101.5 35q66 0 103.5 -37t37.5 -98q0 -60 -38 -96.5t-103 -36.5q-64 0 -101.5 35t-37.5 98zM694 1405q0 70 40.5 102.5t100.5 32.5q65 0 103.5 -36t38.5 -99q0 -61 -39 -97t-103 -36q-60 0 -100.5 32.5t-40.5 100.5z" />
<glyph unicode="&#x4ec;" horiz-adv-x="1358" d="M553 1225q-99 0 -194.5 -28t-188.5 -67l-98 250q232 103 487 103q325 0 502.5 -199.5t177.5 -554.5q0 -362 -182.5 -555.5t-526.5 -193.5q-237 0 -432 75v260q243 -77 414 -77q191 0 291.5 93t109.5 279h-634v254h632q-6 170 -102 265.5t-256 95.5zM314 1743 q0 65 37.5 100t101.5 35q66 0 103.5 -37t37.5 -98q0 -60 -38 -96.5t-103 -36.5q-64 0 -101.5 35t-37.5 98zM717 1743q0 70 40.5 102.5t100.5 32.5q65 0 103.5 -36t38.5 -99q0 -61 -39 -97t-103 -36q-60 0 -100.5 32.5t-40.5 100.5z" />
<glyph unicode="&#x4ed;" horiz-adv-x="1049" d="M418 -20q-210 0 -344 69v238q174 -80 327 -80q110 0 170 64t70 192h-422v203h422q-8 123 -61.5 185t-153.5 62q-119 0 -260 -63l-86 209q75 35 169.5 57.5t188.5 22.5q262 0 390 -142t128 -426q0 -292 -135.5 -441.5t-402.5 -149.5zM174 1405q0 65 37.5 100t101.5 35 q66 0 103.5 -37t37.5 -98q0 -60 -38 -96.5t-103 -36.5q-64 0 -101.5 35t-37.5 98zM577 1405q0 70 40.5 102.5t100.5 32.5q65 0 103.5 -36t38.5 -99q0 -61 -39 -97t-103 -36q-60 0 -100.5 32.5t-40.5 100.5z" />
<glyph unicode="&#x4ee;" horiz-adv-x="1337" d="M1337 1462l-452 -1034q-85 -195 -159.5 -280t-176.5 -126.5t-248 -41.5q-125 0 -233 30v266q88 -36 219 -36q83 0 134 38.5t85 133.5l-506 1050h328l360 -815h10l18 50l302 765h319zM332 1790h678v-211h-678v211z" />
<glyph unicode="&#x4ef;" horiz-adv-x="1165" d="M0 1118h334l211 -629q27 -82 37 -194h6q11 103 43 194l207 629h327l-473 -1261q-65 -175 -185.5 -262t-281.5 -87q-79 0 -155 17v242q55 -13 120 -13q81 0 141.5 49.5t94.5 149.5l18 55zM247 1452h678v-211h-678v211z" />
<glyph unicode="&#x4f0;" horiz-adv-x="1337" d="M1337 1462l-452 -1034q-85 -195 -159.5 -280t-176.5 -126.5t-248 -41.5q-125 0 -233 30v266q88 -36 219 -36q83 0 134 38.5t85 133.5l-506 1050h328l360 -815h10l18 50l302 765h319zM328 1743q0 65 37.5 100t101.5 35q66 0 103.5 -37t37.5 -98q0 -60 -38 -96.5 t-103 -36.5q-64 0 -101.5 35t-37.5 98zM731 1743q0 70 40.5 102.5t100.5 32.5q65 0 103.5 -36t38.5 -99q0 -61 -39 -97t-103 -36q-60 0 -100.5 32.5t-40.5 100.5z" />
<glyph unicode="&#x4f1;" horiz-adv-x="1165" d="M0 1118h334l211 -629q27 -82 37 -194h6q11 103 43 194l207 629h327l-473 -1261q-65 -175 -185.5 -262t-281.5 -87q-79 0 -155 17v242q55 -13 120 -13q81 0 141.5 49.5t94.5 149.5l18 55zM243 1405q0 65 37.5 100t101.5 35q66 0 103.5 -37t37.5 -98q0 -60 -38 -96.5 t-103 -36.5q-64 0 -101.5 35t-37.5 98zM646 1405q0 70 40.5 102.5t100.5 32.5q65 0 103.5 -36t38.5 -99q0 -61 -39 -97t-103 -36q-60 0 -100.5 32.5t-40.5 100.5z" />
<glyph unicode="&#x4f2;" horiz-adv-x="1337" d="M1337 1462l-452 -1034q-85 -195 -159.5 -280t-176.5 -126.5t-248 -41.5q-125 0 -233 30v266q88 -36 219 -36q83 0 134 38.5t85 133.5l-506 1050h328l360 -815h10l18 50l302 765h319zM340 1579v27q62 85 117.5 172.5t76.5 128.5h301v-21q-32 -53 -146 -153t-188 -154h-161 zM737 1579v27q139 192 195 301h301v-21q-25 -43 -125.5 -134.5t-208.5 -172.5h-162z" />
<glyph unicode="&#x4f3;" horiz-adv-x="1165" d="M0 1118h334l211 -629q27 -82 37 -194h6q11 103 43 194l207 629h327l-473 -1261q-65 -175 -185.5 -262t-281.5 -87q-79 0 -155 17v242q55 -13 120 -13q81 0 141.5 49.5t94.5 149.5l18 55zM238 1241v27q62 85 117.5 172.5t76.5 128.5h301v-21q-32 -53 -146 -153t-188 -154 h-161zM635 1241v27q139 192 195 301h301v-21q-25 -43 -125.5 -134.5t-208.5 -172.5h-162z" />
<glyph unicode="&#x4f4;" horiz-adv-x="1491" d="M1307 0h-310v565q-154 -52 -256.5 -71t-195.5 -19q-209 0 -322.5 100.5t-113.5 282.5v604h309v-516q0 -106 49 -159.5t166 -53.5q82 0 163.5 16.5t200.5 57.5v655h310v-1462zM365 1743q0 65 37.5 100t101.5 35q66 0 103.5 -37t37.5 -98q0 -60 -38 -96.5t-103 -36.5 q-64 0 -101.5 35t-37.5 98zM768 1743q0 70 40.5 102.5t100.5 32.5q65 0 103.5 -36t38.5 -99q0 -61 -39 -97t-103 -36q-60 0 -100.5 32.5t-40.5 100.5z" />
<glyph unicode="&#x4f5;" horiz-adv-x="1343" d="M428 1118v-409q0 -146 135 -146q88 0 163.5 20t152.5 52v483h305v-1118h-305v444q-106 -56 -197 -79t-176 -23q-183 0 -283 93.5t-100 266.5v416h305zM314 1405q0 65 37.5 100t101.5 35q66 0 103.5 -37t37.5 -98q0 -60 -38 -96.5t-103 -36.5q-64 0 -101.5 35t-37.5 98z M717 1405q0 70 40.5 102.5t100.5 32.5q65 0 103.5 -36t38.5 -99q0 -61 -39 -97t-103 -36q-60 0 -100.5 32.5t-40.5 100.5z" />
<glyph unicode="&#x4f6;" horiz-adv-x="1149" d="M1108 1462v-256h-614v-940h299v-692h-299v426h-310v1462h924z" />
<glyph unicode="&#x4f7;" horiz-adv-x="979" d="M932 1118v-229h-467v-666h274v-624h-274v401h-305v1118h772z" />
<glyph unicode="&#x4f8;" horiz-adv-x="1855" d="M1184 457q0 -228 -151.5 -342.5t-448.5 -114.5h-400v1462h310v-561h100q281 0 435.5 -116.5t154.5 -327.5zM494 254h81q153 0 224 50.5t71 152.5t-68.5 146t-240.5 44h-67v-393zM1671 0h-309v1462h309v-1462zM588 1743q0 65 37.5 100t101.5 35q66 0 103.5 -37t37.5 -98 q0 -60 -38 -96.5t-103 -36.5q-64 0 -101.5 35t-37.5 98zM991 1743q0 70 40.5 102.5t100.5 32.5q65 0 103.5 -36t38.5 -99q0 -61 -39 -97t-103 -36q-60 0 -100.5 32.5t-40.5 100.5z" />
<glyph unicode="&#x4f9;" horiz-adv-x="1741" d="M465 686h147q256 0 379 -82t123 -248q0 -177 -123 -266.5t-368 -89.5h-463v1118h305v-432zM809 352q0 65 -52 94t-155 29h-137v-264h141q203 0 203 141zM1581 0h-305v1118h305v-1118zM529 1405q0 65 37.5 100t101.5 35q66 0 103.5 -37t37.5 -98q0 -60 -38 -96.5 t-103 -36.5q-64 0 -101.5 35t-37.5 98zM932 1405q0 70 40.5 102.5t100.5 32.5q65 0 103.5 -36t38.5 -99q0 -61 -39 -97t-103 -36q-60 0 -100.5 32.5t-40.5 100.5z" />
<glyph unicode="&#x4fa;" horiz-adv-x="1145" d="M1104 1462v-254h-610v-358h401v-254h-401v-596h-310v596h-137v254h137v612h920zM437 -496q-100 0 -185 25v240q59 -19 119 -19q123 0 123 170v383h295v-428q0 -177 -91.5 -274t-260.5 -97z" />
<glyph unicode="&#x4fb;" horiz-adv-x="1006" d="M958 1118v-248h-512v-217h332v-235h-332v-418h-305v418h-137v235h137v465h817zM389 -496q-100 0 -185 25v240q59 -19 119 -19q123 0 123 170v342h295v-387q0 -177 -91.5 -274t-260.5 -97z" />
<glyph unicode="&#x4fc;" horiz-adv-x="1499" d="M1366 0h-354l-340 553l-340 -553h-332l485 754l-454 708h342l315 -526l309 526h334l-459 -725zM1106 -496q-100 0 -185 25v240q59 -19 119 -19q123 0 123 170v383h295v-428q0 -177 -91.5 -274t-260.5 -97z" />
<glyph unicode="&#x4fd;" horiz-adv-x="1321" d="M389 571l-360 547h346l217 -356l219 356h346l-364 -547l381 -571h-347l-235 383l-236 -383h-346zM940 -496q-100 0 -185 25v240q59 -19 119 -19q123 0 123 170v342h295v-387q0 -177 -91.5 -274t-260.5 -97z" />
<glyph unicode="&#x4fe;" horiz-adv-x="1366" d="M113 872h297l-379 590h342l315 -526l309 526h334l-373 -590h295v-254h-301l414 -618h-354l-340 553l-340 -553h-332l397 618h-284v254z" />
<glyph unicode="&#x4ff;" horiz-adv-x="1184" d="M102 680h215l-288 438h346l217 -356l219 356h346l-293 -438h217v-229h-209l302 -451h-347l-235 383l-236 -383h-346l299 451h-207v229z" />
<glyph unicode="&#x500;" horiz-adv-x="1307" d="M92 457q0 212 156 328t442 116h123v561h309v-1462h-426q-604 0 -604 457zM813 647h-80q-180 0 -253.5 -44.5t-73.5 -145.5q0 -102 73 -152.5t230 -50.5h104v393z" />
<glyph unicode="&#x501;" horiz-adv-x="1296" d="M514 -20q-197 0 -309.5 153t-112.5 424q0 275 114.5 428.5t315.5 153.5q211 0 322 -164h10q-23 125 -23 223v358h306v-1556h-234l-59 145h-13q-104 -165 -317 -165zM621 223q117 0 171.5 68t59.5 231v33q0 180 -55.5 258t-180.5 78q-102 0 -158.5 -86.5t-56.5 -251.5 t57 -247.5t163 -82.5z" />
<glyph unicode="&#x502;" horiz-adv-x="1896" d="M92 438q0 216 149 339.5t416 123.5h115v561h309v-1095q3 -66 42.5 -98.5t125.5 -32.5q90 0 129 51t39 164v397h305v-467q0 -195 -120 -298t-357 -103q-108 0 -204.5 39t-135.5 100q-43 -63 -130 -100t-212 -37q-232 0 -351.5 117.5t-119.5 338.5zM772 647h-72 q-157 0 -225.5 -52.5t-68.5 -160.5q0 -96 46.5 -147t137.5 -51q84 0 133 32.5t49 91.5v287z" />
<glyph unicode="&#x503;" horiz-adv-x="1890" d="M606 -20q-247 0 -380.5 148t-133.5 429q0 272 108.5 427t303.5 155q203 0 309 -164h10q-7 38 -14.5 109.5t-7.5 113.5v358h305v-1175q0 -75 40 -110t128 -35q87 0 124.5 51t37.5 164v249h301v-319q0 -196 -117.5 -298.5t-349.5 -102.5q-120 0 -196 30.5t-138 106.5 q-46 -55 -144 -96t-186 -41zM604 223q111 0 162 68.5t55 230.5v33q0 182 -53 259t-166 77q-201 0 -201 -338q0 -165 49 -247.5t154 -82.5z" />
<glyph unicode="&#x504;" horiz-adv-x="1870" d="M1012 1135q0 -137 -83 -233t-233 -132v-6q177 -22 268 -107.5t91 -230.5q0 -101 41.5 -145.5t126.5 -44.5q89 0 128.5 51t39.5 164v397h305v-467q0 -197 -120 -299t-353 -102q-234 0 -356 114t-122 332q0 106 -97.5 160.5t-282.5 54.5h-170v217h170q344 0 344 209 q0 78 -53.5 122t-166.5 44q-156 0 -309 -100l-155 206q200 144 487 144q230 0 365 -93.5t135 -254.5z" />
<glyph unicode="&#x505;" horiz-adv-x="1782" d="M403 688q158 0 225.5 28t67.5 89q0 54 -50.5 81t-164.5 27q-77 0 -166 -18.5t-168 -52.5l-90 213q120 46 227.5 65t239.5 19q203 0 324 -80t121 -217q0 -189 -209 -246v-10q237 -39 237 -228q0 -122 168 -122q87 0 124.5 51t37.5 164v249h301v-319q0 -197 -117.5 -299 t-345.5 -102q-221 0 -347 76.5t-126 217.5q0 101 -73 152t-209 51h-154v211h147z" />
<glyph unicode="&#x506;" horiz-adv-x="1436" d="M1053 1135q0 -137 -83 -233t-233 -132v-6q177 -22 268 -107.5t91 -230.5v-160h299v-692h-299v426h-310v426q0 106 -104.5 160.5t-304.5 54.5h-182v217h182q373 0 373 209q0 166 -238 166q-167 0 -332 -100l-155 206q209 144 507 144q241 0 381 -93.5t140 -254.5z" />
<glyph unicode="&#x507;" horiz-adv-x="1354" d="M434 688q170 0 242 28t72 89q0 54 -53 81t-175 27q-77 0 -174.5 -19t-177.5 -52l-90 213q119 45 231 64.5t250 19.5q209 0 335 -80t126 -217q0 -189 -209 -246v-10q129 -34 184.5 -96.5t55.5 -163.5v-103h274v-624h-274v401h-297v326q0 78 -76.5 114.5t-237.5 36.5h-164 v211h158z" />
<glyph unicode="&#x508;" horiz-adv-x="2116" d="M1300 375q2 -72 41.5 -105.5t126.5 -33.5q90 0 129 51t39 164v397h306v-467q0 -197 -120 -299t-354 -102q-235 0 -356 100t-121 295v829h-317l-16 -134q-62 -511 -109.5 -717.5t-138.5 -290.5t-246 -82q-84 0 -148 22v254q58 -20 109 -20q53 0 84 48.5t58.5 180t73 431 t77.5 566.5h882v-1087z" />
<glyph unicode="&#x509;" horiz-adv-x="1915" d="M1130 377q0 -74 40 -107.5t128 -33.5q87 0 124.5 51t37.5 164v249h301v-319q0 -197 -117.5 -299t-345.5 -102q-235 0 -354 100t-119 297v512h-250q-32 -375 -78 -559.5t-122.5 -267t-200.5 -82.5q-106 0 -174 32v244q49 -20 98 -20q57 0 95.5 82t69 273.5t52.5 526.5h815 v-741z" />
<glyph unicode="&#x50a;" horiz-adv-x="2136" d="M1341 381q0 -75 36.5 -110t121.5 -35t121.5 51t36.5 164v397h305v-467q0 -196 -117.5 -298.5t-345.5 -102.5q-230 0 -347.5 100t-119.5 293v258h-538v-631h-310v1462h310v-573h538v573h309v-1081z" />
<glyph unicode="&#x50b;" horiz-adv-x="1950" d="M465 1118v-430h405v430h306v-743q2 -72 41 -105.5t120 -33.5q85 0 121.5 51t36.5 164v249h301v-319q0 -198 -116.5 -299.5t-342.5 -101.5q-231 0 -348 100.5t-119 294.5v86h-405v-461h-305v1118h305z" />
<glyph unicode="&#x50c;" horiz-adv-x="1638" d="M821 821h699v-123q0 -358 -168.5 -538t-493.5 -180q-356 0 -547.5 197t-191.5 556q0 229 87.5 399t254 260.5t393.5 90.5q276 0 504 -107l-107 -250q-114 57 -209.5 78t-199.5 21q-189 0 -296.5 -132t-107.5 -366q0 -235 108.5 -362t319.5 -127q154 0 241 83.5t87 234.5 v7h-373v258z" />
<glyph unicode="&#x50d;" horiz-adv-x="1358" d="M662 664h604v-93q0 -591 -580 -591q-282 0 -438 149t-156 422q0 284 162.5 436t462.5 152q226 0 422 -86l-92 -234q-75 35 -165.5 54.5t-162.5 19.5q-163 0 -240.5 -83.5t-77.5 -262.5q0 -326 277 -326q129 0 202.5 58t73.5 157h-292v228z" />
<glyph unicode="&#x50e;" horiz-adv-x="1552" d="M748 381q0 -75 37.5 -110t123.5 -35q88 0 126 51t38 164v397h305v-467q0 -197 -118.5 -299t-348.5 -102q-235 0 -354 101.5t-119 291.5v831h-397v258h1104v-258h-397v-823z" />
<glyph unicode="&#x50f;" horiz-adv-x="1503" d="M1085 1118v-229h-366v-508q0 -75 40 -110t128 -35q86 0 124 51t38 164v249h301v-319q0 -197 -117.5 -299t-345.5 -102q-233 0 -352 99.5t-121 295.5v514h-367v229h1038z" />
<glyph unicode="&#x510;" horiz-adv-x="1327" d="M133 1120q0 105 69 188.5t194 129t284 45.5q176 0 305.5 -33.5t247.5 -112.5l-135 -229q-192 119 -398 119q-133 0 -199.5 -40.5t-66.5 -115.5q0 -102 106.5 -146t338.5 -44h122v-242h-137q-234 0 -351.5 -52t-117.5 -149q0 -103 83 -151.5t253 -48.5q128 0 260.5 24.5 t229.5 71.5v-275q-193 -79 -514 -79q-289 0 -454 117t-165 319q0 146 102 237.5t285 110.5v6q-159 25 -250.5 117.5t-91.5 232.5z" />
<glyph unicode="&#x511;" horiz-adv-x="1139" d="M840 688v-211h-168q-146 0 -219.5 -34t-73.5 -107q0 -121 256 -121q111 0 223.5 23t200.5 63v-244q-172 -77 -434 -77q-266 0 -406.5 82.5t-140.5 246.5q0 107 64 174t208 95v10q-213 49 -213 258q0 141 128.5 217t363.5 76q111 0 226 -22t206 -62l-82 -213 q-169 71 -342 71q-227 0 -227 -104q0 -66 66.5 -93.5t209.5 -27.5h154z" />
<glyph unicode="&#x512;" horiz-adv-x="1675" d="M1341 0h-309v1204h-358l-16 -134q-62 -511 -109.5 -717.5t-138.5 -290.5t-246 -82q-84 0 -148 22v254q58 -20 109 -20q53 0 84 48.5t58.5 180t73 431t77.5 566.5h923v-1462zM1282 -496q-100 0 -185 25v240q59 -19 119 -19q123 0 123 170v383h295v-428q0 -177 -91.5 -274 t-260.5 -97z" />
<glyph unicode="&#x513;" horiz-adv-x="1483" d="M1161 0h-305v889h-281q-32 -375 -78 -559.5t-122.5 -267t-200.5 -82.5q-106 0 -174 32v244q49 -20 98 -20q57 0 95.5 82t69 273.5t52.5 526.5h846v-1118zM1102 -496q-100 0 -185 25v240q59 -19 119 -19q123 0 123 170v342h295v-387q0 -177 -91.5 -274t-260.5 -97z" />
<glyph unicode="&#x1e00;" horiz-adv-x="1413" d="M1079 0l-106 348h-533l-106 -348h-334l516 1468h379l518 -1468h-334zM899 608q-147 473 -165.5 535t-26.5 98q-33 -128 -189 -633h381zM961 -360q0 -108 -71 -174t-183 -66t-180 64t-68 174q0 108 67.5 172.5t180.5 64.5q110 0 182 -66t72 -169zM803 -362q0 45 -27 70.5 t-69 25.5t-69 -25.5t-27 -70.5t24 -71t72 -26q42 0 69 26t27 71z" />
</font>
</defs>
</svg>
