<?xml version="1.0" standalone="no"?>
<!DOCTYPE svg PUBLIC "-//W3C//DTD SVG 1.1//EN" "http://www.w3.org/Graphics/SVG/1.1/DTD/svg11.dtd" >
<svg xmlns="http://www.w3.org/2000/svg" xmlns:xlink="http://www.w3.org/1999/xlink" version="1.1">
<metadata></metadata>
<defs>
<font id="futuraextendedregular" horiz-adv-x="1184" >
<font-face units-per-em="2048" ascent="1638" descent="-410" />
<missing-glyph horiz-adv-x="592" />
<glyph horiz-adv-x="0" />
<glyph unicode="&#xd;" horiz-adv-x="592" />
<glyph unicode=" "  horiz-adv-x="592" />
<glyph unicode="&#x09;" horiz-adv-x="592" />
<glyph unicode="&#xa0;" horiz-adv-x="592" />
<glyph unicode="!" horiz-adv-x="656" d="M201 72q0 51 36 86t87 35t81.5 -33t30.5 -84q0 -49 -32 -86t-80 -37q-111 0 -123 119zM236 357v1187h188v-1187h-188z" />
<glyph unicode="&#x22;" horiz-adv-x="899" d="M185 1544h200l-37 -671h-129zM516 1544h201l-37 -671h-127z" />
<glyph unicode="#" d="M51 432v164h238l55 312h-215v167h244l72 398h159l-75 -398h256l71 398h160l-72 -398h189v-167h-217l-56 -312h205v-164h-237l-80 -432h-156l76 432h-252l-84 -432h-152l76 432h-205zM449 596h252l55 312h-252z" />
<glyph unicode="$" d="M105 396l184 40q48 -263 291 -288v616q-273 122 -333 252q-34 74 -34 160q0 193 158 322q82 67 209 81v185h104v-187q103 0 204 -73q94 -67 144 -164l-159 -93q-70 119 -189 154v-485q396 -155 396 -471q0 -201 -139 -340q-123 -123 -257 -138v-195h-104v195 q-127 0 -240 72q-214 136 -235 357zM387 1184q0 -135 193 -219v436q-82 -10 -137.5 -72t-55.5 -145zM684 160q90 20 151.5 97.5t61.5 170.5q0 176 -213 289v-557z" />
<glyph unicode="%" horiz-adv-x="1448" d="M37 1229q0 200 179 301q83 47 180 47q205 0 311 -174q49 -81 49 -174q0 -148 -105.5 -250t-254.5 -102q-206 0 -310 174q-49 82 -49 178zM156 1229q0 -98 70.5 -163.5t169.5 -65.5q136 0 205 114q32 53 32 115q0 96 -70 161.5t-167 65.5t-167 -65q-73 -66 -73 -162z M228 21l905 1556l92 -53l-905 -1557zM697 320q0 147 106.5 249.5t253.5 102.5q207 0 310 -176q48 -82 48 -176q0 -202 -178 -305q-83 -48 -180 -48q-96 0 -179 48q-181 104 -181 305zM819 320q0 -97 70 -162.5t168 -65.5q137 0 207 113q33 53 33 115q0 134 -120 199 q-55 30 -120 30q-137 0 -205 -113q-33 -55 -33 -116z" />
<glyph unicode="&#x26;" horiz-adv-x="1415" d="M109 385q0 207 149 347q80 75 217 167q-116 128 -150 229q-18 54 -18 109q0 206 163 295q82 45 190 45q219 0 313 -160q43 -73 43 -161q0 -115 -92 -222q-61 -71 -189 -161l326 -394l178 213l125 -129l-188 -219l276 -344h-239l-164 209q-217 -242 -465 -242 q-257 0 -400 202q-75 106 -75 216zM289 412q0 -152 152 -235q68 -37 143 -37q148 0 348 204l-344 420q-114 -77 -156 -109q-143 -109 -143 -243zM484 1272q0 -110 145 -268q207 143 207 260q0 78 -52 122q-48 42 -128 42q-69 0 -117.5 -44t-54.5 -112z" />
<glyph unicode="'" horiz-adv-x="568" d="M56 1016l229 563l160 -63l-273 -547z" />
<glyph unicode="(" horiz-adv-x="600" d="M113 629q0 594 219 1028l147 -113q-87 -181 -134 -446q-42 -234 -42 -465q0 -525 176 -918l-147 -111q-136 255 -191 644q-28 198 -28 381z" />
<glyph unicode=")" horiz-adv-x="600" d="M117 -285q124 259 161 659q0 40 7 159q4 68 4 96q0 537 -172 920l147 112q138 -261 190 -650q25 -188 25 -386q0 -388 -93 -715q-47 -164 -117 -306z" />
<glyph unicode="*" horiz-adv-x="885" d="M129 1125l174 100l-172 102l66 117l180 -100v200h143v-192l164 96l72 -121l-176 -102l176 -100l-72 -121l-164 100v-196h-143v200l-176 -100z" />
<glyph unicode="+" d="M68 436v177h436v436h176v-436h436v-177h-436v-436h-176v436h-436z" />
<glyph unicode="," horiz-adv-x="592" d="M113 -320l223 564l160 -64l-273 -549z" />
<glyph unicode="-" horiz-adv-x="680" d="M117 580v151h446v-151h-446z" />
<glyph unicode="." horiz-adv-x="592" d="M180 84q0 50 33.5 85.5t83.5 35.5q51 0 85 -35t34 -86q0 -49 -35 -83t-84 -34q-47 0 -82 35t-35 82z" />
<glyph unicode="/" horiz-adv-x="1129" d="M64 -193l856 1973l145 -68l-852 -1972z" />
<glyph unicode="0" d="M51 772q0 299 119 526q148 281 422 281q310 0 457 -352q26 -62 46 -140q38 -147 38 -315q0 -204 -58 -378q-60 -181 -175 -295q-134 -132 -308 -132q-168 0 -297 122q-111 104 -175 278q-69 187 -69 405zM236 776q0 -215 74 -396q97 -240 282 -240q214 0 311 316 q45 147 45 320q0 220 -72 398q-97 241 -284 241q-114 0 -202 -107q-70 -84 -109 -212q-45 -147 -45 -320z" />
<glyph unicode="1" d="M252 1368l109 176h344v-1544h-185v1368h-268z" />
<glyph unicode="2" d="M92 0l697 856q114 140 114 256q0 159 -150 249q-67 40 -140 40q-182 0 -270 -151q-40 -69 -40 -129h-190q28 278 235 395q108 61 248 61q201 0 345 -134q147 -137 147 -331q0 -174 -111 -311l-508 -625h623v-176h-1000z" />
<glyph unicode="3" d="M109 381h188q0 -62 46 -127q84 -119 257 -119q176 0 252 150q37 73 37 147q0 177 -124 260q-65 43 -165 43h-37v162q212 0 284 138q22 42 22 98q0 121 -76.5 199.5t-196.5 78.5q-102 0 -169 -60.5t-83 -162.5h-192q62 391 457 391q263 0 386 -200q58 -94 58 -215 q0 -236 -197 -353q217 -102 217 -381v-37q-2 -9 -2 -12q0 -96 -67 -203q-132 -211 -424 -211q-275 0 -407 210q-64 102 -64 204z" />
<glyph unicode="4" d="M17 223l944 1389v-1221h176v-168h-176v-223h-185v223h-759zM336 391h440v646z" />
<glyph unicode="5" d="M60 236l145 137q35 -109 175 -187q76 -42 157 -42q227 0 332 189q51 92 51 187q0 200 -174 312q-89 57 -183 57q-192 0 -299 -137h-41l242 792h619v-176h-488l-96 -315l109 4q94 3 192 -42q188 -87 264 -284q39 -101 39 -198q0 -231 -138 -386q-152 -171 -386 -180 l-51 -2q-103 -4 -206 40q-172 73 -263 231z" />
<glyph unicode="6" d="M80 449q4 11 4 22q0 176 168 402l524 704l140 -92l-412 -557l4 -4q69 37 152 37q118 0 223 -66q101 -63 161 -169q64 -112 64 -257q0 -260 -225 -414q-128 -88 -270 -88q-135 0 -256.5 66t-199 179.5t-77.5 236.5zM264 484q-3 -84 46 -170q69 -123 197 -165 q42 -14 81 -14q13 5 29 5q72 0 153 50q154 95 154 275q0 82 -52 161q-48 73 -123 117q-79 46 -169 46q-78 0 -153 -50q-70 -46 -114 -116q-47 -76 -49 -139z" />
<glyph unicode="7" d="M97 60l800 1308h-800v176h1112l-965 -1577z" />
<glyph unicode="8" d="M109 436q0 124 63 223q67 103 181 142q-205 123 -205 375q0 105 59 200q56 89 150 145q98 58 231 58q279 0 396 -218q53 -99 53 -216q0 -225 -205 -344q118 -35 183 -144q60 -99 60 -229q0 -272 -232 -399q-113 -62 -259 -62q-155 0 -261 68q-214 138 -214 401zM293 436 q0 -170 160 -257q72 -39 143 -39q158 0 253 145q44 67 44 143q0 181 -163 260q-68 33 -138 33q-129 0 -213 -77q-86 -80 -86 -208zM328 1153q0 -142 142 -229q63 -39 126 -39q120 0 217 136q43 61 43 124q0 156 -130 231q-61 35 -134 35q-103 0 -183.5 -77.5t-80.5 -180.5z " />
<glyph unicode="9" d="M113 1092q0 184 133 331q148 164 363 164q143 0 266 -69.5t195 -192.5q67 -114 67 -229v-4q0 -133 -79 -272q-33 -58 -78 -119l-535 -726l-142 101l414 553l-8 8q-55 -37 -141 -37q-120 0 -234 74q-221 144 -221 418zM297 1092q0 -179 163 -278q76 -46 165 -46 q191 0 285 163q43 75 43 161q0 183 -167 280q-74 43 -161 43q-179 0 -282 -167q-46 -75 -46 -156z" />
<glyph unicode=":" horiz-adv-x="592" d="M176 88q0 48 36 82.5t85 34.5t84 -34t35 -83q0 -51 -34 -86t-85 -35q-50 0 -85.5 35.5t-35.5 85.5zM176 869q0 50 35.5 84t85.5 34q51 0 85 -33.5t34 -84.5q0 -49 -35 -85t-84 -36t-85 36t-36 85z" />
<glyph unicode=";" horiz-adv-x="592" d="M97 -320l223 564l159 -64l-270 -549zM277 873q0 48 35 81t84 33t82.5 -36.5t33.5 -85.5q0 -47 -34.5 -80t-81.5 -33q-119 0 -119 121z" />
<glyph unicode="&#x3c;" d="M68 453v143l1048 424v-192l-788 -303l788 -306v-190z" />
<glyph unicode="=" d="M68 260v176h1048v-176h-1048zM68 613v176h1048v-176h-1048z" />
<glyph unicode="&#x3e;" d="M68 33v186l788 306l-788 303v192l1048 -424v-139z" />
<glyph unicode="?" horiz-adv-x="928" d="M101 1237q0 89 54 171q111 169 314 169q244 0 334 -204q37 -84 37 -156q0 -167 -115 -260q-73 -59 -212 -98q-59 -17 -97 -35q-92 -45 -92 -132q0 -57 44.5 -100t100.5 -43q67 0 109 47q39 45 39 113h184q0 -107 -65.5 -195.5t-167.5 -121.5q-47 -15 -97 -15 q-188 0 -287 162q-49 80 -49 174l4 5l1 3q0 185 222 272l122 48q155 61 168 155q0 129 -94 185q-40 24 -89 24q-72 0 -126 -52t-54 -124q7 -32 10 -65h-190q0 20 -8 73zM353 84q0 49 34 85t82 36q71 0 105 -63q14 -26 14 -54q0 -48 -35.5 -84.5t-83.5 -36.5q-49 0 -82.5 34 t-33.5 83z" />
<glyph unicode="@" horiz-adv-x="1641" d="M72 781q4 13 4 43q0 199 114 380q110 176 287 275.5t379 99.5q138 0 270 -54q203 -83 323 -257t120 -391q0 -59 -16 -127q-11 -48 -42 -127q-49 -127 -137 -210q-103 -97 -225 -97q-113 0 -133 129q-123 -129 -281 -129q-197 0 -299 198q-51 100 -47 195l2 43 q5 101 64 206t143 161q96 65 207 65q172 0 279 -147l28 127h144l-123 -644q6 -49 35 -55l18 -4q52 0 108 71q40 51 68 117q43 102 43 191q0 328 -246 490q-129 85 -311 85q-236 0 -416 -172q-192 -183 -192 -446q0 -405 328 -588q143 -80 335 -80q95 0 192 22q120 27 173 77 l152 -119q-100 -57 -184 -87q-151 -55 -380 -55q-281 0 -516 199q-268 227 -268 615zM553 731q0 -101 48 -175q56 -85 151 -85l5 3l3 1q225 0 268 265l4 69q5 93 -49 154t-147 61q-117 0 -196 -85q-87 -94 -87 -208z" />
<glyph unicode="A" horiz-adv-x="1440" d="M-17 0l738 1612l739 -1612h-208l-177 387h-706l-176 -387h-210zM449 563h547l-275 625z" />
<glyph unicode="B" horiz-adv-x="1096" d="M131 0v1544h193q323 0 465 -144q96 -97 96 -232q0 -260 -176 -344q179 -15 274 -206q45 -91 45 -198q0 -211 -173 -324q-147 -96 -367 -96h-357zM324 172h155q357 0 357 252q0 148 -114 223q-97 62 -253 62h-145v-537zM324 860h88q293 0 293 256q0 143 -82 204 q-71 52 -219 52h-80v-512z" />
<glyph unicode="C" horiz-adv-x="1352" d="M60 793q0 255 156 454q119 151 292 240q177 90 365 90q223 0 399 -100v-225q-179 153 -412 153q-245 0 -426.5 -183t-181.5 -429q0 -280 181.5 -464.5t426.5 -184.5q221 0 412 159v-227q-191 -109 -403 -109q-160 0 -307 62q-304 128 -437 439q-65 152 -65 325z" />
<glyph unicode="D" horiz-adv-x="1360" d="M131 0v1544h322q253 0 451 -91q224 -104 334 -308q83 -154 83 -352q0 -335 -202 -552q-225 -241 -648 -241h-340zM324 176h117q440 0 606 289q78 136 78 311q0 301 -208 455q-185 137 -497 137h-96v-1192z" />
<glyph unicode="E" horiz-adv-x="1067" d="M148 0v1544h829v-176h-637v-432h621v-176h-621v-584h637v-176h-829z" />
<glyph unicode="F" horiz-adv-x="973" d="M144 0v1544h749v-176h-553v-432h537v-176h-537v-760h-196z" />
<glyph unicode="G" horiz-adv-x="1596" d="M41 781q0 187 102 373q155 284 452 382q124 41 229 41q210 0 361.5 -69.5t291.5 -227.5l-141 -131q-191 252 -500 252q-152 0 -291 -82q-134 -78 -220 -210q-93 -142 -93 -316l4 -12q0 -168 84 -317.5t227 -237.5q134 -82 264 -82q134 0 254.5 59.5t197.5 167.5 q85 119 85 233h-404v177h613v-68q0 -314 -204 -529q-207 -219 -519 -219h-44q-10 2 -14 2q-160 0 -327 98q-140 82 -230 204q-178 242 -178 512z" />
<glyph unicode="H" horiz-adv-x="1385" d="M131 0v1544h193v-620h737v620h191v-1544h-191v744h-737v-744h-193z" />
<glyph unicode="I" horiz-adv-x="475" d="M140 0v1544h192v-1544h-192z" />
<glyph unicode="J" horiz-adv-x="740" d="M-41 37l97 160q86 -53 157 -53q83 0 139 66q48 57 63 145q13 78 13 190v999h193v-999q0 -267 -81 -405q-103 -173 -347 -173q-119 0 -234 70z" />
<glyph unicode="K" horiz-adv-x="1229" d="M148 0v1544h192v-667l656 667h251l-694 -692l707 -852h-260l-584 721l-76 -78v-643h-192z" />
<glyph unicode="L" horiz-adv-x="789" d="M148 0v1544h192v-1368h469v-176h-661z" />
<glyph unicode="M" horiz-adv-x="1745" d="M29 0l315 1612l529 -1221l532 1221l316 -1612h-201l-180 1028l-467 -1065l-465 1069l-185 -1032h-194z" />
<glyph unicode="N" horiz-adv-x="1608" d="M129 0v1620l1159 -1220v1144h197v-1608l-1165 1217v-1153h-191z" />
<glyph unicode="O" horiz-adv-x="1696" d="M41 772q0 217 108 402t296 295q185 108 403 108q337 0 573 -234t236 -571q0 -217 -107 -401.5t-295 -294t-407 -109.5q-217 0 -402 107t-295 295t-110 403zM232 772q0 -169 81.5 -311.5t225.5 -227.5t309 -85q166 0 307.5 83.5t225.5 228.5t84 312q0 168 -81 313 t-224.5 230.5t-311.5 85.5q-167 0 -308 -83t-224.5 -228.5t-83.5 -317.5z" />
<glyph unicode="P" horiz-adv-x="1012" d="M144 0l4 1544h243q149 0 272 -23q161 -30 247 -147q81 -110 81 -278q0 -234 -171 -351q-144 -98 -324 -98h-156v-647h-196zM340 819l64 -2q16 -1 32 -1q375 0 375 296q0 260 -387 260h-84v-553z" />
<glyph unicode="Q" horiz-adv-x="1696" d="M41 756q0 340 227 578q230 243 568 243q217 0 406.5 -109t302 -295.5t112.5 -400.5q0 -352 -242 -567l242 -238h-233l-136 138q-211 -142 -432 -142q-175 0 -326 65q-306 132 -430 435q-59 144 -59 293zM232 756q0 -243 180.5 -427.5t423.5 -184.5q155 0 319 92l-354 344 h244l243 -244q177 188 177 473q0 118 -56 239q-102 220 -341 310q-114 43 -240 43q-109 0 -228 -52q-175 -76 -274 -240q-94 -157 -94 -353z" />
<glyph unicode="R" horiz-adv-x="1112" d="M148 0v1544h276q270 0 387 -84q180 -129 180 -348q0 -171 -101 -293t-269 -147l487 -672h-231l-457 652h-80v-652h-192zM340 811q161 0 262 23q209 48 209 266q0 272 -407 272h-64v-561z" />
<glyph unicode="S" horiz-adv-x="1100" d="M68 400l192 41q0 -92 47 -163q86 -130 252 -130q111 0 191.5 73t89.5 183l4 51q1 10 1 20q0 100 -83 165q-72 56 -216 118q-170 73 -224 105q-187 111 -187 329q0 147 121 262q132 125 336 125q260 0 395 -235l-151 -92q-87 149 -252 149q-146 0 -222 -114 q-34 -51 -34 -99q0 -147 151 -205l176 -68q269 -104 341 -274q41 -97 41 -196q0 -146 -82 -262.5t-219 -174.5q-96 -41 -187 -41q-257 0 -399 207q-69 100 -82 226z" />
<glyph unicode="T" horiz-adv-x="932" d="M4 1368v176h928v-176h-369v-1368h-190v1368h-369z" />
<glyph unicode="U" horiz-adv-x="1372" d="M121 553v991h191v-944q0 -198 84 -317q97 -135 288 -135q377 0 377 469v927h191v-981q0 -260 -153 -426q-157 -170 -415 -170q-170 0 -300 79q-135 82 -203 233q-60 134 -60 274z" />
<glyph unicode="V" horiz-adv-x="1313" d="M-17 1544h214l459 -1140l460 1140h211l-671 -1624z" />
<glyph unicode="W" horiz-adv-x="2104" d="M-25 1544h210l432 -1103l436 1138l440 -1138l430 1103h209l-639 -1604l-440 1131l-436 -1135z" />
<glyph unicode="X" horiz-adv-x="1176" d="M0 0l484 811l-424 733h221l315 -561l336 561h221l-448 -735l471 -809h-219l-361 637l-381 -637h-215z" />
<glyph unicode="Y" horiz-adv-x="1172" d="M-13 1544h222l379 -659l381 659h219l-504 -872v-672h-192v672z" />
<glyph unicode="Z" horiz-adv-x="1133" d="M21 0l780 1368h-672v176h987l-784 -1368h784v-176h-1095z" />
<glyph unicode="[" horiz-adv-x="637" d="M125 -396v2057h391v-176h-204v-1708h204v-173h-391z" />
<glyph unicode="\" horiz-adv-x="1129" d="M64 1780h172l829 -1780h-172z" />
<glyph unicode="]" horiz-adv-x="637" d="M125 -223h199v1712h-199v172h391v-2057h-391v173z" />
<glyph unicode="^" d="M68 633l407 911h234l407 -911h-192l-332 744l-332 -744h-192z" />
<glyph unicode="_" horiz-adv-x="1024" d="M0 -232h1024v-153h-1024v153z" />
<glyph unicode="`" horiz-adv-x="735" d="M156 1415l168 88l256 -339l-88 -56z" />
<glyph unicode="a" horiz-adv-x="1141" d="M51 484q0 313 236 444q106 59 225 59q52 0 114 -20q142 -46 218 -174v168h184v-961h-184v156q-134 -189 -332 -189q-105 0 -187 39q-135 64 -207 197q-67 124 -67 281zM236 484q0 -214 154 -311q70 -44 143 -44q150 0 237 107q82 99 82 252q0 140 -82 236 q-87 100 -225 100q-168 0 -262 -156q-47 -78 -47 -184z" />
<glyph unicode="b" horiz-adv-x="1141" d="M113 0v1780h184v-987q127 194 332 194q203 0 334 -147q125 -141 125 -344q0 -136 -43 -241q-78 -190 -254 -258q-78 -30 -148 -30q-121 0 -199 46q-66 39 -147 143v-156h-184zM289 484q0 -146 79 -245q85 -108 228 -108q149 0 232 107q75 97 75 250q0 190 -141 285 q-76 51 -170 51q-170 0 -259 -159q-44 -78 -44 -181z" />
<glyph unicode="c" horiz-adv-x="903" d="M51 469q0 141 69 259.5t192 187.5q120 67 260 67q149 0 260 -59v-240q-110 131 -283 131q-126 0 -219.5 -100t-93.5 -227q0 -195 146 -295q77 -53 173 -53q90 0 153 30q56 26 124 94v-235q-116 -58 -260 -58q-139 0 -257 62q-121 64 -192.5 179.5t-71.5 256.5z" />
<glyph unicode="d" horiz-adv-x="1141" d="M51 471q0 145 56 262q62 130 179 196q103 58 222 58q99 0 195 -54t141 -140v987h184v-1780h-184v156q-125 -189 -328 -189q-226 0 -353 169q-112 149 -112 335zM236 471q0 -177 123 -282q68 -58 174 -58q206 0 285 179q34 77 34 165q0 215 -149 305q-73 44 -166 44 q-191 0 -268 -187q-33 -80 -33 -166z" />
<glyph unicode="e" horiz-adv-x="1000" d="M51 516q0 88 38 185q70 179 235 249q87 37 192 37q302 0 406 -254q45 -110 45 -211v-16l-2 -57h-725q0 -136 79 -226q84 -94 218 -94q177 0 274 191l158 -92q-158 -261 -453 -261q-210 0 -339 152q-126 148 -126 397zM248 588h537q-15 106 -81 171q-70 69 -175 69 q-112 0 -187 -64.5t-94 -175.5z" />
<glyph unicode="f" horiz-adv-x="563" d="M80 789v172h84v475q0 369 305 369q75 0 135 -25v-188q-71 41 -129 41q-127 0 -127 -232v-440h256v-172h-256v-789h-184v789h-84z" />
<glyph unicode="g" horiz-adv-x="1137" d="M51 500q0 182 115 327q127 160 330 160q222 0 344 -198v172h184v-961q0 -422 -244 -512q-100 -37 -217 -37q-287 0 -408 207q-58 99 -58 225h184q0 -268 299 -268q260 0 260 317v224l-41 -62q-51 -77 -148 -108q-59 -19 -151 -19q-274 0 -392 255q-57 123 -57 278z M236 492q0 -119 50 -210q56 -102 161 -137q42 -14 90 -14q191 0 275 168q40 80 40 189q0 215 -166 300q-70 36 -137 36q-193 0 -275 -169q-38 -78 -38 -163z" />
<glyph unicode="h" horiz-adv-x="1071" d="M129 0v1780h183v-948h4q92 155 293 155q335 0 335 -387v-600h-184v600q0 120 -53.5 172t-173.5 52q-221 0 -221 -299v-525h-183z" />
<glyph unicode="i" horiz-adv-x="520" d="M131 1405q0 50 39.5 86.5t89.5 36.5q54 0 90.5 -38.5t36.5 -92.5q0 -53 -39 -89t-92 -36q-55 0 -90 38.5t-35 94.5zM168 0v961h185v-961h-185z" />
<glyph unicode="j" horiz-adv-x="520" d="M131 1405q0 48 40 85.5t89 37.5q57 0 92 -38.5t35 -96.5q0 -50 -38.5 -85.5t-88.5 -35.5q-56 0 -92.5 38.5t-36.5 94.5zM168 -549v1510h185v-1510h-185z" />
<glyph unicode="k" horiz-adv-x="948" d="M140 0v1780h184v-1184l360 365h244l-408 -402l453 -559h-242l-344 436l-63 -63v-373h-184z" />
<glyph unicode="l" horiz-adv-x="457" d="M135 0v1780h185v-1780h-185z" />
<glyph unicode="m" horiz-adv-x="1573" d="M121 0v961h182v-121h4q35 68 139 120q54 27 117 27q182 0 277 -172q100 172 293 172q319 0 319 -399v-588h-184v549q0 127 -30 188q-43 87 -154 87q-203 0 -203 -304v-520h-184v512q0 138 -30 208q-44 104 -163 104q-201 0 -201 -320v-504h-182z" />
<glyph unicode="n" horiz-adv-x="1071" d="M129 0v961h183v-137q106 163 297 163q335 0 335 -411v-576h-184v580q0 123 -43 179q-49 65 -168 65q-237 0 -237 -299v-525h-183z" />
<glyph unicode="o" horiz-adv-x="1104" d="M41 475q0 139 68 256.5t189 187.5q118 68 255 68q138 0 255.5 -67t187 -186t69.5 -259q0 -136 -68.5 -253t-186.5 -186t-257 -69q-136 0 -255 68.5t-188 186t-69 253.5zM223 475q0 -190 165 -286q77 -45 165 -45q135 0 231.5 97.5t96.5 233.5q0 192 -164 291 q-74 45 -164 45q-188 0 -285 -167q-45 -78 -45 -169z" />
<glyph unicode="p" horiz-adv-x="1141" d="M113 -549v1510h184v-160h6q53 99 187 156q71 30 143 30q264 0 390 -238q61 -115 61 -265q0 -291 -206 -443q-101 -74 -235 -74q-220 0 -346 189v-705h-184zM289 484q0 -148 78 -247q84 -108 229 -108l8 2q91 0 160 50q139 100 139 298q0 148 -82 244q-87 101 -233 101 q-167 0 -255 -156q-44 -78 -44 -184z" />
<glyph unicode="q" horiz-adv-x="1141" d="M51 475q0 158 80 294q85 145 227 197q57 21 121 21q245 0 365 -194v168h184v-1510h-184v705q-51 -84 -141 -136.5t-187 -52.5q-207 0 -339 152q-126 146 -126 356zM236 484q0 -149 78 -247q85 -106 231 -106q196 0 273 176q34 78 34 168q0 228 -168 312q-74 37 -155 37 q-125 0 -212 -110q-81 -102 -81 -230z" />
<glyph unicode="r" horiz-adv-x="721" d="M140 0v961h184v-164q85 190 264 190q92 0 156 -43l-84 -172q-46 37 -123 37q-213 0 -213 -321v-488h-184z" />
<glyph unicode="s" horiz-adv-x="789" d="M72 180l160 76q54 -127 172 -127q51 0 92.5 32.5t52.5 82.5q0 74 -74 128q-31 23 -72 44l-71 37q-215 112 -215 260q0 62 36 129q78 145 247 145q171 0 264 -168l-152 -79q-42 84 -125 84q-43 0 -70.5 -28t-27.5 -71q0 -57 86 -99l161 -79q199 -98 199 -270 q0 -168 -157 -265q-73 -45 -158 -45q-262 0 -348 213z" />
<glyph unicode="t" horiz-adv-x="492" d="M51 789v172h101v366h184v-366h184v-172h-184v-789h-184v789h-101z" />
<glyph unicode="u" horiz-adv-x="1049" d="M121 391v570h182v-545q0 -116 56 -196q63 -91 174 -91q215 0 215 287v545h184v-553q0 -267 -171 -390q-90 -65 -228 -65q-242 0 -357 209q-55 100 -55 229z" />
<glyph unicode="v" horiz-adv-x="912" d="M-29 961h209l277 -600l274 600h209l-483 -994z" />
<glyph unicode="w" horiz-adv-x="1473" d="M-33 961h209l281 -613l278 664l285 -664l277 613h211l-488 -994l-285 642l-278 -642z" />
<glyph unicode="x" horiz-adv-x="1000" d="M-29 0l429 520l-344 441h217l227 -314l248 314h225l-352 -441l411 -520h-217l-315 387l-303 -387h-226z" />
<glyph unicode="y" horiz-adv-x="991" d="M-29 961h218l323 -613l299 613h209l-776 -1510h-207l375 713z" />
<glyph unicode="z" horiz-adv-x="1012" d="M4 0l648 789h-535v172h895l-647 -789h618v-172h-979z" />
<glyph unicode="{" horiz-adv-x="684" d="M101 555v150q79 25 119 124q32 79 32 175v405q0 117 95 212q40 40 77 40h160v-172h-84q-59 0 -59 -96v-428q0 -210 -156 -336q156 -103 156 -348v-406q0 -53 13 -73q16 -25 66 -25h64v-173h-156q-86 0 -148 136q-28 61 -28 120v396q0 236 -151 299z" />
<glyph unicode="|" horiz-adv-x="1168" d="M496 0v1780h176v-1780h-176z" />
<glyph unicode="}" horiz-adv-x="684" d="M101 -223h84q59 0 59 92v428q0 211 156 336q-156 110 -156 348v408q0 105 -80 100l-63 -4v176h143q113 0 165 -135q23 -59 23 -121v-401q0 -230 152 -295v-154q-78 -23 -119 -123q-33 -81 -33 -176v-391q0 -139 -88 -221q-43 -40 -100 -40h-143v173z" />
<glyph unicode="~" d="M68 469l43 57q48 63 77 93q96 98 228 98q107 -15 239 -120q112 -89 160 -89q75 15 166 176l140 -104q-137 -248 -328 -248q-49 0 -107 30q-105 70 -238 149q-44 26 -87 26q-74 -21 -164 -164z" />
<glyph unicode="&#xa1;" horiz-adv-x="656" d="M209 912q-3 49 31.5 91t83.5 42q54 0 87.5 -35.5t33.5 -89.5q0 -53 -34 -86t-87 -33q-109 0 -115 111zM240 -529v1189h184v-1189h-184z" />
<glyph unicode="&#xa2;" d="M205 793q0 101 54 213q115 238 374 278v160h98v-156q135 0 250 -63v-242q-98 133 -250 133v-667q133 0 250 123v-240q-113 -59 -254 -59v-172h-94v180q-256 34 -372 267q-56 113 -56 245zM385 760q0 -63 36 -137q73 -150 212 -170v651q-141 -17 -214 -183 q-34 -77 -34 -161z" />
<glyph unicode="&#xa3;" d="M25 47q98 175 210 217q45 17 101 17q29 90 29 168q0 100 -45 168h-264v118h204q-126 227 -116 377l4 60q7 99 89 202q75 94 172 144q113 59 238 59q171 0 323 -104q171 -117 171 -373l-184 -72l2 43q4 84 -38 166q-57 113 -178 152q-37 12 -79 12q-169 0 -284 -160 q-52 -73 -52 -149q0 -110 87 -256l60 -101h301v-118h-256q29 -89 29 -176q0 -27 -8 -101q-2 -8 -8 -38l-8 -38q34 -10 133 -48l125 -48q42 -16 86 -16q76 0 138 102l30 49l155 -94q-47 -106 -128 -171q-90 -71 -199 -71q-90 0 -247 63q-166 67 -253 67q-131 0 -180 -130z " />
<glyph unicode="&#xa4;" d="M68 604q0 159 88 304l-84 88l125 125l92 -93q124 101 303 101q171 0 305 -101l90 93l125 -125l-84 -88q88 -128 88 -299q0 -150 -88 -285l84 -92l-125 -119l-90 88q-128 -96 -313 -96q-164 0 -295 96l-92 -88l-125 119l84 92q-88 149 -88 280zM232 617q0 -182 171 -295 q81 -53 181 -53q164 0 265 106q99 103 99 268q0 81 -48 158q-46 74 -118 115q-86 49 -186 49q-223 0 -320 -178q-44 -81 -44 -170z" />
<glyph unicode="&#xa5;" d="M-8 1544h221l379 -659l381 659h219l-323 -561h303v-118h-371l-113 -193v-20h484v-119h-484v-533h-192v533h-483v119h483v20l-111 193h-372v118h303z" />
<glyph unicode="&#xa6;" horiz-adv-x="692" d="M484 0v1772h176v-1772h-176z" />
<glyph unicode="&#xa7;" d="M80 856q0 194 201 332q-96 98 -96 223q0 98 57 186q55 84 145.5 133.5t192.5 49.5q240 0 353 -172q54 -82 54 -172h-178q0 84 -71 133q-62 43 -150 43q-189 0 -215 -201q0 -89 91 -155q58 -42 104 -64l154 -74l163 -81q219 -109 219 -297q0 -86 -57 -181 q-52 -88 -127 -143q108 -108 108 -256q0 -233 -236 -339q-109 -49 -229 -49q-208 0 -324 132q-110 126 -110 336h183q0 -169 123 -255q64 -45 145 -45q103 0 180 62q84 66 84 166q0 60 -39 117q-58 62 -199 128l-266 124q-79 37 -148 88q-112 83 -112 231zM264 877l4 -26 q1 -7 5 -23q20 -62 126 -124q37 -21 166 -80q141 -64 232 -116q123 86 123 201q0 75 -47 123q-31 32 -114 74l-372 190q-123 -81 -123 -219z" />
<glyph unicode="&#xa8;" horiz-adv-x="965" d="M140 1301q0 50 37 86.5t87 36.5q51 0 87 -36t36 -87q0 -52 -35.5 -88.5t-87.5 -36.5t-88 36.5t-36 88.5zM572 1301q0 49 38 86t87 37q51 0 86.5 -36t35.5 -87q0 -52 -35 -88.5t-87 -36.5t-88.5 36.5t-36.5 88.5z" />
<glyph unicode="&#xa9;" horiz-adv-x="1641" d="M13 772q0 217 107 402t294.5 294t404.5 109q337 0 573 -234t236 -571q0 -217 -107 -401.5t-295 -294t-407 -109.5q-216 0 -401 106.5t-295 293t-110 405.5zM144 772q0 -181 90 -336t246.5 -245t338.5 -90q183 0 337 87.5t246.5 244t92.5 339.5q0 284 -196 480t-480 196 q-181 0 -336.5 -89.5t-247 -246t-91.5 -340.5zM404 760q0 317 233 432q103 51 219 51q201 0 306 -144q51 -70 67 -159h-125q-43 172 -264 172q-147 0 -228 -103q-75 -94 -75 -245q0 -190 150 -275q70 -40 169 -40q204 0 248 180h125q-24 -192 -201 -275q-81 -38 -172 -38 q-254 0 -381 204q-71 114 -71 240z" />
<glyph unicode="&#xaa;" horiz-adv-x="684" d="M25 756v96h635v-96h-635zM25 1276q0 173 139 261q67 42 152 42q138 0 225 -114v96h119v-578h-119v97q-82 -115 -213 -115q-135 0 -219 88t-84 223zM144 1280q0 -91 52 -151q55 -64 144 -64q92 0 148.5 56t56.5 147q0 94 -55.5 153.5t-149.5 59.5q-82 0 -139 -59.5 t-57 -141.5z" />
<glyph unicode="&#xab;" horiz-adv-x="1071" d="M60 652l376 497l113 -84l-305 -409l305 -392l-113 -84zM457 656l371 493l116 -84l-307 -409l307 -392l-116 -84z" />
<glyph unicode="&#xac;" d="M68 613v176h1048v-553h-176v377h-872z" />
<glyph unicode="&#xad;" horiz-adv-x="680" d="M117 580v151h446v-151h-446z" />
<glyph unicode="&#xae;" horiz-adv-x="1641" d="M13 772q0 217 107 402t294.5 294t404.5 109q337 0 573 -234t236 -571q0 -217 -107 -401.5t-295 -294t-407 -109.5q-216 0 -401 106.5t-295 293t-110 405.5zM144 772q0 -181 90 -336t246.5 -245t338.5 -90q183 0 337 87.5t246.5 244t92.5 339.5q0 284 -196 480t-480 196 q-181 0 -336.5 -89.5t-247 -246t-91.5 -340.5zM508 312v909h391q301 0 301 -238q0 -112 -64 -182t-175 -70l227 -419h-147l-232 419h-168v-419h-133zM641 865h271q159 0 159 104q0 119 -178 119h-252v-223z" />
<glyph unicode="&#xaf;" horiz-adv-x="2364" />
<glyph unicode="&#xb0;" horiz-adv-x="2364" />
<glyph unicode="&#xb1;" d="M68 0v176h1048v-176h-1048zM68 621v176h436v356h176v-356h436v-176h-436v-352h-176v352h-436z" />
<glyph unicode="&#xb2;" horiz-adv-x="709" d="M33 621l446 508q66 75 66 147q0 68 -53.5 120t-122.5 52q-125 0 -174 -96q-15 -29 -15 -59h-137q10 79 48 139q86 137 270 137q125 0 220 -81q99 -85 99 -208q0 -107 -71 -188l-312 -357h383v-114h-647z" />
<glyph unicode="&#xb3;" horiz-adv-x="709" d="M41 860h127q18 -133 189 -133q73 0 128.5 47t55.5 119q0 98 -94 148q-45 24 -107 24h-8v115q140 0 184 78q13 23 13 55q0 67 -56 107q-50 36 -120 36q-148 0 -148 -112h-141q45 235 305 235q119 0 200 -65q87 -71 87 -187q0 -135 -131 -206q153 -71 147 -256 q-4 -119 -108 -189q-92 -63 -216 -63q-183 0 -266 125q-41 62 -41 122z" />
<glyph unicode="&#xb4;" horiz-adv-x="735" d="M156 1164l256 339l172 -88l-340 -307z" />
<glyph unicode="&#xb5;" horiz-adv-x="1049" d="M121 -549v1510h182v-545q0 -276 226 -276q219 0 219 276v545h184v-553q0 -199 -94 -315q-102 -126 -297 -126q-102 0 -238 89v-605h-182z" />
<glyph unicode="&#xb6;" d="M84 1065q0 189 139 340q41 45 89 76q97 63 192 63h600v-172h-127v-1684h-172v1684h-125v-1684h-176v892q-103 0 -189 44q-231 118 -231 441z" />
<glyph unicode="&#xb7;" d="M205 776q0 221 194 332q89 51 193 51q228 0 338 -190q51 -88 51 -193q0 -224 -194 -336q-92 -53 -195 -53q-220 0 -334 195q-53 91 -53 194z" />
<glyph unicode="&#xb8;" horiz-adv-x="676" d="M176 -316l181 279l143 -60l-215 -276z" />
<glyph unicode="&#xb9;" horiz-adv-x="709" d="M131 1428l74 116h236v-923h-134v807h-176z" />
<glyph unicode="&#xba;" horiz-adv-x="664" d="M0 756v96h664v-96h-664zM0 1272q0 164 148 258q77 49 188 49q196 0 287 -158q41 -71 41 -149q0 -179 -168 -265q-82 -42 -189 -42q-83 0 -165 53q-142 92 -142 254zM121 1272q0 -86 62.5 -143.5t148.5 -57.5q125 0 186 106q27 47 27 95q0 85 -61.5 143t-147.5 58 q-126 0 -187 -100q-28 -46 -28 -101z" />
<glyph unicode="&#xbb;" horiz-adv-x="1071" d="M131 256l310 404l-310 393l117 88l373 -481l-373 -492zM525 252l307 412l-307 389l116 84l375 -473l-375 -496z" />
<glyph unicode="&#xbc;" horiz-adv-x="1776" d="M88 1428l68 116h235v-923h-131v807h-172zM391 25l902 1552l108 -53l-905 -1557zM969 135l627 834v-717h100v-117h-100v-135h-131v135h-496zM1204 252h261v348z" />
<glyph unicode="&#xbd;" horiz-adv-x="1776" d="M88 1428l68 116h235v-923h-131v807h-172zM289 25l899 1552l105 -53l-902 -1557zM1049 0l446 512q66 76 66 144t-54 120t-122 52q-74 0 -128 -40q-61 -44 -61 -116h-135q17 167 153 238q73 38 163 38q177 0 273 -138q46 -66 46 -146q0 -112 -72 -193l-311 -350h383v-121 h-647z" />
<glyph unicode="&#xbe;" horiz-adv-x="1776" d="M84 860h131q12 -133 185 -133q73 0 128.5 47t55.5 119v4q0 100 -95 146q-46 22 -108 22v115q132 0 178 79q13 22 13 54q0 66 -54 107q-49 36 -118 36q-152 0 -152 -112h-135q36 235 299 235q120 0 201 -65q88 -70 88 -187q0 -136 -133 -206q158 -67 149 -256 q-6 -120 -109 -190q-91 -62 -217 -62q-181 0 -265 125q-42 63 -42 122zM508 25l901 1552l107 -53l-903 -1557zM969 135l627 834v-717h100v-117h-100v-135h-131v135h-496zM1204 252h261v348z" />
<glyph unicode="&#xbf;" horiz-adv-x="928" d="M88 -180q0 163 117 256q68 54 212 97q62 19 99 36q84 40 84 119q0 59 -39 105t-96 46q-68 0 -110.5 -45t-42.5 -114h-183q0 178 152 278q82 54 184 54q183 0 278 -165q46 -80 46 -180q0 -190 -208 -266l-112 -41q-183 -67 -196 -164q0 -135 87 -188q41 -25 93 -25 q73 0 128.5 52t55.5 124q0 32 -12 70h190q4 -25 4 -78q0 -194 -180 -295q-80 -45 -174 -45q-245 0 -338 210q-39 88 -39 159zM340 924q0 48 36.5 84.5t84.5 36.5q46 0 80.5 -35.5t34.5 -81.5q0 -50 -35 -86.5t-84 -36.5t-83 35t-34 84z" />
<glyph unicode="&#xc0;" horiz-adv-x="2634" d="M76 -24l957 324l12 -10l-921 -314h-48zM76 -24h48l1172 -390v-16zM76 1056h48l1172 -392v-17zM76 1056l1220 413v-17l-1172 -396h-48zM110 -13h2363v-17h-2363v17zM110 1044v21h2363v-21h-2363zM207 -24h50l1039 -390v-16zM207 -24l832 315l11 -11l-793 -304h-50z M207 1056l1089 413v-17l-1039 -396h-50zM207 1056h50l1039 -392v-17zM452 -24l608 298l13 -9l-581 -289h-40zM452 -24h40l804 -390v-16zM452 1056h40l804 -392v-17zM452 1056l844 413v-17l-804 -396h-40zM581 -178h1429l-29 -17h-1373zM581 899h1429l-29 -17h-1373zM726 -24 l370 268l10 -12l-350 -256h-30zM726 -24h30l540 -390v-16zM726 1056l570 413v-17l-540 -396h-30zM726 1056h30l540 -392v-17zM904 516q0 181 107 288.5t288 107.5q180 0 285.5 -107.5t105.5 -288.5q0 -178 -106.5 -284t-284.5 -106t-286.5 106.5t-108.5 283.5zM970 269 l33 11h47l19 -11h-99zM970 1346l33 11h583l38 -11h-654zM977 475q0 -30 24 -30q26 0 26 27q0 29 -24 29q-5 0 -11 -2q-15 -12 -15 -24zM982 -317h629l-29 -11h-584zM982 762h450l8 -11h-442zM994 420l12 -34l36 -64l18 -22l27 -24l34 -25l30 -15l26 -9l-18 17l-21 15l-29 36 l-21 22l-38 73l-5 23l-10 25l-10 -11l-10 -7h-21zM1020 -24h19l257 -390v-16zM1020 -24l276 412v-16l-257 -396h-19zM1020 1056l276 413v-17l-257 -396h-19zM1020 1056h19l257 -392v-17zM1033 300l105 33zM1045 290zM1050 280zM1069 269zM1073 265zM1106 232zM1138 333 l158 55v-16l-145 -50zM1140 333zM1140 333l156 55v-16l-145 -55zM1151 318l145 70v-16l-137 -65zM1151 318zM1166 294zM1166 294l130 94v-16l-122 -88zM1177 280zM1177 280h409l38 -11h-440zM1290 380h15v-800l-15 4v796zM1290 660v799h15v-799h-15zM1296 372v16l574 -412 h-32zM1296 372v16l847 -412h-42zM1296 372v16l277 -412h-21zM1296 372v16l1090 -412h-52zM1296 372v16l1219 -412h-48zM1296 -414l256 390h21l-277 -406v16zM1296 -414l1171 390h48l-1219 -406v16zM1296 -414l1038 390h52l-1090 -406v16zM1296 -414l542 390h32l-574 -406v16 zM1296 -414l805 390h42l-847 -406v16zM1296 647v17l159 60l10 -11zM1296 647v17l256 392h21zM1296 647v17l136 98l8 -11zM1296 647v17l163 54l9 -13zM1296 647v17l148 73l11 -13zM1296 1452v17l1090 -413h-52zM1296 1452v17l574 -413h-32zM1296 1452v17l847 -413h-42z M1296 1452v17l277 -413h-21zM1296 1452v17l1219 -413h-48zM1428 834l23 -26l17 -17l13 -15l7 -16l15 -23l7 -21l12 -35l14 14l22 16l16 2l-48 61l-23 19l-22 15l-37 15zM1440 751zM1440 751zM1455 724l100 38zM1455 724zM1465 713zM1468 705zM1508 818zM1508 818l330 238h32 l-351 -252zM1536 781l565 275h42l-591 -288zM1536 781zM1555 762zM1555 762l779 294h52l-819 -305zM1555 762h56l-29 -11h-15zM1564 753zM1564 753l903 303h48l-942 -315zM1979 147zM1979 1224z" />
<glyph unicode="&#xc1;" horiz-adv-x="5749" d="M88 -390h1515v367h-1134v728h-381v-1095zM88 1070v364h1515v-364h-1515zM1983 -390h378v731h759v-731h377v1095h-1514v-1095zM1983 1070v364h1514v-364h-1514zM3877 -23v-367h1515v1095h-1515v-364h1136v-364h-1136zM3877 1070v364h1515v-364h-1515z" />
<glyph unicode="&#xc2;" horiz-adv-x="2245" d="M102 1560l1036 -1982l1018 1982h-76v-47h10l-955 -1841l-962 1841h1907v47h-1978zM392 1368l117 -229h1242l117 229h-1476zM551 1059l120 -230h922l117 230h-1159zM575 1254q0 55 50 55h16v-26h-12q-26 0 -26 -29q0 -27 26 -27h12v-24h-16q-50 0 -50 51zM663 1259 q0 50 54 50q48 0 48 -50q0 -56 -48 -56q-54 0 -54 56zM689 1254q0 -27 28 -27q24 0 24 27q0 29 -24 29q-28 0 -28 -29zM711 756l121 -234h600l119 234h-840zM761 893l23 102h22l25 -102h-22l-3 18h-22l-1 -18h-22zM791 928h11q-5 23 -7 45zM791 1203l6 81q2 25 19 25 q18 0 20 -23l4 -49l10 54q3 18 20 18q18 0 18 -23l10 -83h-24l-7 83l-13 -68q-3 -15 -14 -15q-8 0 -8 11l-16 70l-6 -81h-19zM864 893v102h16q46 0 46 -51q0 -38 -28 -48q-5 -3 -19 -3h-15zM867 434v11h535v-11h-535zM867 434h8q74 -140 171 -309q24 -30 42 -30q24 0 29 38 q15 111 -5 111h-4q-3 -1 -7 -1l-27 -18l61 189v-507zM882 911q24 0 24 33t-24 33v-66zM885 591v23q12 -8 19 -8q11 0 11 14l-14 14q-16 16 -16 27q0 27 28 27q7 0 16 -4v-16q-7 2 -10 4q-13 0 -13 -11l14 -18q14 -18 14 -23q0 -36 -28 -36q-9 0 -21 7zM920 1203v65 q0 41 36 41t36 -38q0 -34 -36 -34h-4v24q16 0 16 10q0 13 -13 13q-11 0 -11 -13v-68h-24zM944 688h23l5 -18q4 -5 6 -18q3 6 4 18l8 18h20l-24 -56v-46h-18v46zM955 995h23l8 -44q4 -22 4 -32q0 10 6 32l12 44h20l-25 -102h-21zM1017 1237v72h23v-72q0 -14 11 -14 q18 0 18 14v72h21v-72q0 -34 -39 -34q-34 0 -34 34zM1022 661q0 27 24 27q12 0 23 -4v-16q-11 2 -18 4q-7 0 -7 -11l13 -18q13 -18 13 -23q0 -36 -30 -36q-7 0 -16 7v23q9 -8 14 -8q9 0 9 14l-11 14q-14 18 -14 27zM1051 893l23 102h18l28 -102h-25l-3 18h-18l-2 -18h-21z M1076 928h14l-3 45zM1088 670v18h50v-18h-16v-84h-21v84h-13zM1113 1283v26h63v-26h-16v-80h-30v80h-17zM1135 -93l267 527h-9q-87 -171 -169 -309q-18 -30 -44 -30q-24 0 -28 38q-11 111 10 111h2q16 -9 30 -19l-59 189v-507zM1152 893v102h24l18 -53q0 -7 6 -23 q-2 23 -2 36v40h20v-102h-20l-22 58q-1 7 -7 18q6 -14 6 -34v-42h-23zM1162 586v102h42v-18h-24v-18h20v-22h-20v-23h24v-21h-42zM1194 1259q0 50 54 50q52 0 52 -50q0 -56 -52 -56q-54 0 -54 56zM1219 1254q0 -27 29 -27q30 0 30 27q0 29 -30 29q-29 0 -29 -29zM1226 586 l11 102h25l5 -36q3 -22 3 -32q1 5 6 32l2 36h25l11 -102h-20l-5 46v38l-11 -84h-16l-13 84v-12q-1 -11 -1 -18v-8l-4 -46h-18zM1255 944q0 51 42 51h12v-22q-3 4 -9 4q-22 0 -22 -33t22 -33q7 0 9 6v-21q-3 -3 -9 -3q-45 0 -45 51zM1328 1203v65q0 41 33 41q37 0 37 -26v-4 q0 -21 -21 -25q22 0 22 -17v-34h-26v34q0 6 -16 6v23q15 0 15 7q0 11 -11 11q-10 0 -10 -13v-68h-23zM1333 591v23q10 -8 15 -8q11 0 11 14l-13 14q-13 14 -13 27q0 27 26 27q10 0 16 -4v-16l-14 4q-6 0 -6 -11l12 -18q10 -15 10 -23q0 -36 -26 -36q-8 0 -18 7zM1355 893 v102h38v-18h-21v-22h21v-16h-21v-22h21v-24h-38zM1429 1203v106h26v-106h-26zM1438 893v102h17q44 0 44 -51t-48 -51h-13zM1457 911q22 0 22 33t-22 33v-66zM1479 1237v72h26v-72q0 -14 15 -14q9 0 9 14v72h27v-72q0 -34 -36 -34q-41 0 -41 34zM1581 1203l4 81q1 25 22 25 q14 0 18 -23l8 -49h3l5 54q2 18 22 18q19 0 20 -23l5 -83h-23l-2 83l-16 -68q-4 -15 -11 -15q-13 0 -13 11l-14 70l-6 -81h-22z" />
<glyph unicode="&#xc3;" horiz-adv-x="2361" d="M77 1518v37h2161v-37h-2161zM77 1523h33q286 -522 685 -1160q93 -100 174 -100q92 0 109 131q23 174 23 271q0 144 -46 144h-11q-7 0 -22 -9q-93 -56 -111 -58l244 708v-1894zM1155 -444l1083 1967h-33q-292 -522 -692 -1160q-85 -100 -170 -100q-92 0 -112 131 q-24 155 -24 264q0 151 53 151h8q5 0 126 -67l-239 708v-1894z" />
<glyph unicode="&#xc4;" horiz-adv-x="1440" d="M-17 0l738 1612l739 -1612h-208l-177 387h-706l-176 -387h-210zM381 1889q0 51 36 86.5t87 35.5t88 -35.5t37 -86.5q0 -52 -36.5 -88.5t-88.5 -36.5q-51 0 -87 37t-36 88zM449 563h547l-275 625zM811 1889q0 50 37.5 86t87.5 36t87.5 -36t37.5 -86q0 -53 -36 -89t-89 -36 q-51 0 -88 37t-37 88z" />
<glyph unicode="&#xc5;" horiz-adv-x="1440" d="M-17 0l738 1612l739 -1612h-208l-177 387h-706l-176 -387h-210zM449 563h547l-275 625zM537 1909q0 76 55.5 129t132.5 53q74 0 128.5 -54t54.5 -128q0 -107 -92 -163q-41 -25 -91 -25q-79 0 -133.5 54.5t-54.5 133.5zM629 1909q0 -40 28 -68t68 -28q37 0 63.5 29 t26.5 67t-26 65t-64 27q-39 0 -67.5 -26.5t-28.5 -65.5z" />
<glyph unicode="&#xc6;" horiz-adv-x="2040" d="M0 0l744 1544h676l75 -176h-630l184 -432h618l82 -176h-620l248 -584h638l76 -176h-831l-168 387h-705l-174 -387h-213zM469 563h551l-268 596z" />
<glyph unicode="&#xc7;" horiz-adv-x="1352" d="M60 793q0 255 156 454q119 151 292 240q177 90 365 90q223 0 399 -100v-225q-179 153 -412 153q-245 0 -426.5 -183t-181.5 -429q0 -280 181.5 -464.5t426.5 -184.5q221 0 412 159v-227q-191 -109 -403 -109q-160 0 -307 62q-304 128 -437 439q-65 152 -65 325zM520 -316 l177 279l143 -60l-211 -276z" />
<glyph unicode="&#xc8;" horiz-adv-x="1067" d="M148 0v1544h829v-176h-637v-432h621v-176h-621v-584h637v-176h-829zM324 2005l168 86l256 -340l-88 -55z" />
<glyph unicode="&#xc9;" horiz-adv-x="1067" d="M148 0v1544h829v-176h-637v-432h621v-176h-621v-584h637v-176h-829zM344 1751l256 340l172 -86l-340 -309z" />
<glyph unicode="&#xca;" horiz-adv-x="1067" d="M148 0v1544h829v-176h-637v-432h621v-176h-621v-584h637v-176h-829zM205 1796l328 295l327 -295l-120 -96l-207 197l-209 -197z" />
<glyph unicode="&#xcb;" horiz-adv-x="1067" d="M148 0v1544h829v-176h-637v-432h621v-176h-621v-584h637v-176h-829zM219 1889q0 50 37.5 86t87.5 36t87.5 -36t37.5 -86q0 -53 -36 -89t-89 -36q-51 0 -88 37t-37 88zM652 1889q0 51 36.5 86.5t87.5 35.5q52 0 87.5 -35t35.5 -87t-35.5 -88.5t-87.5 -36.5t-88 36.5 t-36 88.5z" />
<glyph unicode="&#xcc;" horiz-adv-x="475" d="M25 2005l168 86l256 -340l-88 -55zM144 0v1544h192v-1544h-192z" />
<glyph unicode="&#xcd;" horiz-adv-x="475" d="M25 1751l256 340l172 -86l-340 -309zM140 0v1544h192v-1544h-192z" />
<glyph unicode="&#xce;" horiz-adv-x="475" d="M-92 1796l328 295l327 -295l-118 -96l-209 197l-207 -197zM140 0v1544h192v-1544h-192z" />
<glyph unicode="&#xcf;" horiz-adv-x="475" d="M-105 1889q0 51 37.5 86.5t88.5 35.5t87 -35.5t36 -86.5q0 -52 -35.5 -88.5t-87.5 -36.5t-89 36.5t-37 88.5zM144 0v1544h192v-1544h-192zM328 1889q0 51 37 86.5t88 35.5t87 -35.5t36 -86.5q0 -52 -35.5 -88.5t-87.5 -36.5t-88.5 36.5t-36.5 88.5z" />
<glyph unicode="&#xd0;" horiz-adv-x="1596" d="M41 781q0 187 102 373q155 284 452 382q124 41 229 41q210 0 361.5 -69.5t291.5 -227.5l-141 -131q-191 252 -500 252q-152 0 -291 -82q-134 -78 -220 -210q-93 -142 -93 -316l4 -12q0 -168 84 -317.5t227 -237.5q134 -82 264 -82q134 0 254.5 59.5t197.5 167.5 q85 119 85 233h-404v177h613v-68q0 -314 -204 -529q-207 -219 -519 -219h-44q-10 2 -14 2q-160 0 -327 98q-140 82 -230 204q-178 242 -178 512zM487 2104h149q47 -141 186 -156q180 0 234 156h147q-41 -190 -215 -256q-82 -31 -184 -31q-101 0 -203 90q-90 80 -114 197z " />
<glyph unicode="&#xd1;" horiz-adv-x="1608" d="M129 0v1620l1159 -1220v1144h197v-1608l-1165 1217v-1153h-191zM416 1843q92 164 227 164q53 0 79 -12l104 -48q81 -37 118 -42q13 0 21 -4q87 0 139 100l96 -80q-32 -70 -99 -119q-70 -51 -144 -51q-48 8 -94 27l-105 43q-64 26 -102 35h-19q-75 0 -125 -92z" />
<glyph unicode="&#xd2;" horiz-adv-x="1696" d="M41 772q0 217 108 402t296 295q185 108 403 108q337 0 573 -234t236 -571q0 -217 -107 -401.5t-295 -294t-407 -109.5q-217 0 -402 107t-295 295t-110 403zM232 772q0 -169 81.5 -311.5t225.5 -227.5t309 -85q166 0 307.5 83.5t225.5 228.5t84 312q0 168 -81 313 t-224.5 230.5t-311.5 85.5q-167 0 -308 -83t-224.5 -228.5t-83.5 -317.5zM637 2001l168 88l256 -340l-88 -57z" />
<glyph unicode="&#xd3;" horiz-adv-x="1696" d="M41 772q0 217 108 402t296 295q185 108 403 108q337 0 573 -234t236 -571q0 -217 -107 -401.5t-295 -294t-407 -109.5q-217 0 -402 107t-295 295t-110 403zM232 772q0 -169 81.5 -311.5t225.5 -227.5t309 -85q166 0 307.5 83.5t225.5 228.5t84 312q0 168 -81 313 t-224.5 230.5t-311.5 85.5q-167 0 -308 -83t-224.5 -228.5t-83.5 -317.5zM637 1751l256 340l172 -86l-340 -309z" />
<glyph unicode="&#xd4;" horiz-adv-x="1696" d="M41 772q0 217 108 402t296 295q185 108 403 108q337 0 573 -234t236 -571q0 -217 -107 -401.5t-295 -294t-407 -109.5q-217 0 -402 107t-295 295t-110 403zM232 772q0 -169 81.5 -311.5t225.5 -227.5t309 -85q166 0 307.5 83.5t225.5 228.5t84 312q0 168 -81 313 t-224.5 230.5t-311.5 85.5q-167 0 -308 -83t-224.5 -228.5t-83.5 -317.5zM520 1796l328 295l328 -295l-119 -96l-209 197l-207 -197z" />
<glyph unicode="&#xd5;" horiz-adv-x="1696" d="M41 772q0 217 108 402t296 295q185 108 403 108q337 0 573 -234t236 -571q0 -217 -107 -401.5t-295 -294t-407 -109.5q-217 0 -402 107t-295 295t-110 403zM232 772q0 -169 81.5 -311.5t225.5 -227.5t309 -85q166 0 307.5 83.5t225.5 228.5t84 312q0 168 -81 313 t-224.5 230.5t-311.5 85.5q-167 0 -308 -83t-224.5 -228.5t-83.5 -317.5zM457 1843q92 164 227 164q54 0 80 -12l103 -48q80 -37 116 -42q13 0 21 -4q85 0 141 100l94 -80q-30 -70 -98 -119q-71 -51 -145 -51q-47 8 -93 27l-105 44q-56 24 -101 34h-21q-76 0 -123 -92z" />
<glyph unicode="&#xd6;" horiz-adv-x="1696" d="M41 772q0 217 108 402t296 295q185 108 403 108q337 0 573 -234t236 -571q0 -217 -107 -401.5t-295 -294t-407 -109.5q-217 0 -402 107t-295 295t-110 403zM232 772q0 -169 81.5 -311.5t225.5 -227.5t309 -85q166 0 307.5 83.5t225.5 228.5t84 312q0 168 -81 313 t-224.5 230.5t-311.5 85.5q-167 0 -308 -83t-224.5 -228.5t-83.5 -317.5zM512 1889q0 52 36.5 87t88.5 35q51 0 87 -35.5t36 -86.5q0 -52 -35.5 -88.5t-87.5 -36.5t-88.5 36.5t-36.5 88.5zM944 1889q0 51 36 86.5t87 35.5q52 0 88.5 -35t36.5 -87q0 -53 -36 -89t-89 -36 q-51 0 -87 37t-36 88z" />
<glyph unicode="&#xd7;" horiz-adv-x="2364" />
<glyph unicode="&#xd8;" horiz-adv-x="1696" d="M29 43l199 201q-187 205 -187 528q0 217 108 402t296 295q185 108 403 108q301 0 537 -205l202 207l84 -84l-206 -207q192 -226 192 -516q0 -217 -107 -401.5t-295 -294t-407 -109.5q-293 0 -532 193l-203 -203zM232 772q0 -224 133 -403l887 878q-169 154 -404 154 q-167 0 -308 -83t-224.5 -228.5t-83.5 -317.5zM457 289q173 -141 391 -141q166 0 307.5 83.5t225.5 228.5t84 312q0 209 -134 387z" />
<glyph unicode="&#xd9;" horiz-adv-x="1372" d="M121 553v991h191v-944q0 -198 84 -317q97 -135 288 -135q377 0 377 469v927h191v-981q0 -260 -153 -426q-157 -170 -415 -170q-170 0 -300 79q-135 82 -203 233q-60 134 -60 274zM453 2005l168 86l256 -340l-88 -55z" />
<glyph unicode="&#xda;" horiz-adv-x="1372" d="M121 553v991h191v-944q0 -198 84 -317q97 -135 288 -135q377 0 377 469v927h191v-981q0 -260 -153 -426q-157 -170 -415 -170q-170 0 -300 79q-135 82 -203 233q-60 134 -60 274zM471 1751l256 340l172 -86l-340 -309z" />
<glyph unicode="&#xdb;" horiz-adv-x="1372" d="M125 553v991h191v-944q0 -200 83 -317q96 -135 289 -135q377 0 377 469v927h191v-981q0 -260 -153 -426q-157 -170 -415 -170q-170 0 -300 79q-135 82 -203 233q-60 134 -60 274zM361 1796l327 295l328 -295l-119 -96l-209 197l-209 -197z" />
<glyph unicode="&#xdc;" horiz-adv-x="1372" d="M125 553v991h191v-944q0 -200 83 -317q96 -135 289 -135q377 0 377 469v927h191v-981q0 -260 -153 -426q-157 -170 -415 -170q-170 0 -300 79q-135 82 -203 233q-60 134 -60 274zM348 1889q0 51 36 86.5t87 35.5q52 0 88.5 -35t36.5 -87q0 -53 -36 -89t-89 -36 q-51 0 -87 37t-36 88zM781 1889q0 51 35.5 86.5t86.5 35.5q53 0 89 -34.5t36 -87.5q0 -54 -35.5 -89.5t-89.5 -35.5q-52 0 -87 36.5t-35 88.5z" />
<glyph unicode="&#xdd;" horiz-adv-x="475" d="M137 1943q0 42 34 73.5t76 31.5q46 0 77 -33t31 -79t-33 -76t-79 -30t-76 33t-30 80zM140 0v1544h192v-1544h-192z" />
<glyph unicode="&#xde;" horiz-adv-x="1100" d="M68 400l192 41q0 -92 47 -163q86 -130 252 -130q111 0 191.5 73t89.5 183l4 51q9 114 -82 185q-72 56 -216 118q-170 73 -224 105q-187 111 -187 329q0 147 121 262q132 125 336 125q260 0 395 -235l-151 -92q-87 149 -252 149q-146 0 -222 -114q-34 -51 -34 -99 q0 -147 151 -205l176 -68q269 -104 341 -274q41 -97 41 -196q0 -146 -82 -262.5t-219 -174.5q-96 -41 -187 -41q-257 0 -399 207q-69 100 -82 226zM399 -316l177 279l143 -60l-211 -276z" />
<glyph unicode="&#xdf;" horiz-adv-x="1188" d="M56 793v172h84v328q0 234 102 366q114 146 342 146q266 0 394 -228q59 -105 59 -229q0 -211 -193 -328q180 -54 273 -269q44 -102 44 -216v-38q-2 -10 -2 -13q0 -128 -90 -260q-85 -126 -203 -188q-131 -69 -290 -69v173q103 0 199 55q202 115 202 334q0 134 -76 231 q-74 94 -204 132q-55 16 -121 16v180q157 0 241 135q39 63 39 141q0 111 -83 189q-81 75 -193 75q-256 0 -256 -389v-1239h-184v793h-84z" />
<glyph unicode="&#xe0;" horiz-adv-x="1141" d="M51 484q0 313 236 444q106 59 225 59q52 0 114 -20q142 -46 218 -174v168h184v-961h-184v156q-134 -189 -332 -189q-105 0 -187 39q-135 64 -207 197q-67 124 -67 281zM236 484q0 -214 154 -311q70 -44 143 -44q150 0 237 107q82 99 82 252q0 140 -82 236 q-87 100 -225 100q-168 0 -262 -156q-47 -78 -47 -184zM361 1415l168 88l256 -339l-88 -56z" />
<glyph unicode="&#xe1;" horiz-adv-x="1141" d="M51 484q0 313 236 444q106 59 225 59q52 0 114 -20q142 -46 218 -174v168h184v-961h-184v156q-134 -189 -332 -189q-105 0 -187 39q-135 64 -207 197q-67 124 -67 281zM236 484q0 -214 154 -311q70 -44 143 -44q150 0 237 107q82 99 82 252q0 140 -82 236 q-87 100 -225 100q-168 0 -262 -156q-47 -78 -47 -184zM357 1164l256 339l172 -88l-340 -307z" />
<glyph unicode="&#xe2;" horiz-adv-x="1141" d="M51 484q0 313 236 444q106 59 225 59q52 0 114 -20q142 -46 218 -174v168h184v-961h-184v156q-134 -189 -332 -189q-105 0 -187 39q-135 64 -207 197q-67 124 -67 281zM236 484q0 -214 154 -311q70 -44 143 -44q150 0 237 107q82 99 82 252q0 140 -82 236 q-87 100 -225 100q-168 0 -262 -156q-47 -78 -47 -184zM240 1209l328 294l329 -294l-121 -97l-208 197l-207 -197z" />
<glyph unicode="&#xe3;" horiz-adv-x="1141" d="M51 484q0 313 236 444q106 59 225 59q52 0 114 -20q142 -46 218 -174v168h184v-961h-184v156q-134 -189 -332 -189q-105 0 -187 39q-135 64 -207 197q-67 124 -67 281zM180 1256q92 164 228 164q48 0 114 -27q18 -10 46 -23l78 -37q18 -9 63 -16q13 0 18 -4q84 0 142 98 l96 -80q-34 -71 -99 -118q-70 -49 -145 -49q-51 7 -77 18l-106 44q-77 32 -118 42h-20q-75 0 -123 -92zM236 484q0 -214 154 -311q70 -44 143 -44q150 0 237 107q82 99 82 252q0 140 -82 236q-87 100 -225 100q-168 0 -262 -156q-47 -78 -47 -184z" />
<glyph unicode="&#xe4;" horiz-adv-x="1141" d="M51 484q0 313 236 444q106 59 225 59q52 0 114 -20q142 -46 218 -174v168h184v-961h-184v156q-134 -189 -332 -189q-105 0 -187 39q-135 64 -207 197q-67 124 -67 281zM232 1301q0 49 38 86t87 37q51 0 86.5 -36t35.5 -87q0 -52 -35 -88.5t-87 -36.5t-88.5 36.5 t-36.5 88.5zM236 484q0 -214 154 -311q70 -44 143 -44q150 0 237 107q82 99 82 252q0 140 -82 236q-87 100 -225 100q-168 0 -262 -156q-47 -78 -47 -184zM664 1301q0 49 38 86t87 37t86 -37t37 -86q0 -52 -35.5 -88.5t-87.5 -36.5t-88.5 36.5t-36.5 88.5z" />
<glyph unicode="&#xe5;" horiz-adv-x="1141" d="M51 484q0 313 236 444q106 59 225 59q52 0 114 -20q142 -46 218 -174v168h184v-961h-184v156q-134 -189 -332 -189q-105 0 -187 39q-135 64 -207 197q-67 124 -67 281zM236 484q0 -214 154 -311q70 -44 143 -44q150 0 237 107q82 99 82 252q0 140 -82 236 q-87 100 -225 100q-168 0 -262 -156q-47 -78 -47 -184zM385 1321q0 103 94 157q43 25 93 25q74 0 129 -54t55 -128q0 -78 -53.5 -133t-130.5 -55q-79 0 -133 54.5t-54 133.5zM475 1321q0 -39 29 -67.5t68 -28.5q37 0 64.5 29.5t27.5 66.5t-27.5 63.5t-64.5 26.5 q-40 0 -68.5 -25.5t-28.5 -64.5z" />
<glyph unicode="&#xe6;" horiz-adv-x="1653" d="M47 273q4 11 4 20q0 84 59 167q100 140 306 140q185 0 293 -84l2 41q9 182 -115 244q-69 27 -172 27q-106 0 -231 -31v164q117 22 256 22q278 0 360 -155q126 159 359 159q258 0 382 -203q74 -121 74 -335h-735q0 -139 84.5 -228.5t222.5 -89.5q168 0 273 189l155 -92 q-155 -261 -436 -261q-221 0 -377 177q-127 -177 -366 -177q-223 0 -340 143q-58 71 -58 163zM223 293q0 -77 82 -124q70 -40 152 -40l6 1l5 1q130 0 200 78q33 37 33 84q0 76 -90 121q-73 35 -158 35q-81 0 -146 -38q-76 -44 -84 -118zM903 588h541q-21 156 -149 214 q-57 26 -119 26q-102 0 -177.5 -69t-95.5 -171z" />
<glyph unicode="&#xe7;" horiz-adv-x="903" d="M51 469q0 141 69 259.5t192 187.5q120 67 260 67q149 0 260 -59v-240q-110 131 -283 131q-126 0 -219.5 -100t-93.5 -227q0 -195 146 -295q77 -53 173 -53q90 0 153 30q56 26 124 94v-235q-116 -58 -260 -58q-139 0 -257 62q-121 64 -192.5 179.5t-71.5 256.5zM289 -316 l180 279l144 -60l-217 -276z" />
<glyph unicode="&#xe8;" horiz-adv-x="1000" d="M51 516q0 88 38 185q70 179 235 249q87 37 192 37q302 0 406 -254q49 -119 45 -227l-2 -57h-725q0 -136 79 -226q84 -94 218 -94q177 0 274 191l158 -92q-158 -261 -453 -261q-210 0 -339 152q-126 148 -126 397zM248 588h537q-15 106 -81 171q-70 69 -175 69 q-112 0 -187 -64.5t-94 -175.5zM293 1415l168 88l256 -339l-88 -56z" />
<glyph unicode="&#xe9;" horiz-adv-x="1000" d="M51 516q0 88 38 185q70 179 235 249q87 37 192 37q302 0 406 -254q49 -119 45 -227l-2 -57h-725q0 -136 79 -226q84 -94 218 -94q177 0 274 191l158 -92q-158 -261 -453 -261q-210 0 -339 152q-126 148 -126 397zM248 588h537q-15 106 -81 171q-70 69 -175 69 q-112 0 -187 -64.5t-94 -175.5zM289 1164l256 339l172 -88l-340 -307z" />
<glyph unicode="&#xea;" horiz-adv-x="1000" d="M51 516q0 88 38 185q70 179 235 249q87 37 192 37q302 0 406 -254q49 -119 45 -227l-2 -57h-725q0 -136 79 -226q84 -94 218 -94q177 0 274 191l158 -92q-158 -261 -453 -261q-210 0 -339 152q-126 148 -126 397zM172 1209l328 294l328 -294l-119 -97l-209 197l-207 -197 zM248 588h537q-15 106 -81 171q-70 69 -175 69q-112 0 -187 -64.5t-94 -175.5z" />
<glyph unicode="&#xeb;" horiz-adv-x="1000" d="M51 516q0 88 38 185q70 179 235 249q87 37 192 37q302 0 406 -254q49 -119 45 -227l-2 -57h-725q0 -136 79 -226q84 -94 218 -94q177 0 274 191l158 -92q-158 -261 -453 -261q-210 0 -339 152q-126 148 -126 397zM156 1301q0 49 38 86t87 37t86 -37t37 -86 q0 -52 -35.5 -88.5t-87.5 -36.5t-88.5 36.5t-36.5 88.5zM248 588h537q-15 106 -81 171q-70 69 -175 69q-112 0 -187 -64.5t-94 -175.5zM588 1301q0 50 37.5 86.5t87.5 36.5q51 0 87 -36t36 -87q0 -53 -35 -89t-88 -36q-52 0 -88.5 36.5t-36.5 88.5z" />
<glyph unicode="&#xec;" horiz-adv-x="520" d="M47 1415l168 88l256 -339l-86 -56zM168 0v961h185v-961h-185z" />
<glyph unicode="&#xed;" horiz-adv-x="520" d="M43 1164l256 339l172 -88l-340 -307zM168 0v961h185v-961h-185z" />
<glyph unicode="&#xee;" horiz-adv-x="520" d="M-68 1209l328 294l328 -294l-119 -97l-209 197l-209 -197zM168 0v961h185v-961h-185z" />
<glyph unicode="&#xef;" horiz-adv-x="520" d="M-80 1301q0 49 37 86t86 37q51 0 88 -36t37 -87q0 -53 -36 -89t-89 -36q-51 0 -87 37t-36 88zM168 0v961h185v-961h-185zM353 1301q0 49 36.5 86t85.5 37q51 0 88 -36t37 -87q0 -54 -35.5 -89.5t-89.5 -35.5q-52 0 -87 36.5t-35 88.5z" />
<glyph unicode="&#xf0;" horiz-adv-x="1137" d="M51 500q0 182 115 327q127 160 330 160q222 0 344 -198v172h184v-961q0 -422 -244 -512q-100 -37 -217 -37q-287 0 -408 207q-58 99 -58 225h184q0 -268 299 -268q260 0 260 317v224l-41 -62q-51 -77 -148 -108q-59 -19 -151 -19q-274 0 -392 255q-57 123 -57 278z M194 1474h149q47 -141 186 -156q180 0 234 156h147q-41 -190 -215 -256q-82 -31 -184 -31q-101 0 -203 90q-90 80 -114 197zM236 492q0 -119 50 -210q56 -102 161 -137q42 -14 90 -14q191 0 275 168q40 80 40 189q0 215 -166 300q-70 36 -137 36q-193 0 -275 -169 q-38 -78 -38 -163z" />
<glyph unicode="&#xf1;" horiz-adv-x="1071" d="M129 0v961h183v-137q106 163 297 163q335 0 335 -411v-576h-184v580q0 123 -43 179q-49 65 -168 65q-237 0 -237 -299v-525h-183zM144 1256q93 164 229 164q59 0 156 -48l77 -38q18 -9 66 -17q12 0 20 -4q85 0 140 98l96 -80q-30 -71 -99 -119t-145 -48q-46 6 -78 19 l-106 43q-87 35 -115 42h-20q-74 0 -125 -92z" />
<glyph unicode="&#xf2;" horiz-adv-x="1104" d="M41 475q0 139 68 256.5t189 187.5q118 68 255 68q138 0 255.5 -67t187 -186t69.5 -259q0 -136 -68.5 -253t-186.5 -186t-257 -69q-136 0 -255 68.5t-188 186t-69 253.5zM223 475q0 -190 165 -286q77 -45 165 -45q135 0 231.5 97.5t96.5 233.5q0 192 -164 291 q-74 45 -164 45q-188 0 -285 -167q-45 -78 -45 -169zM344 1415l168 88l256 -339l-88 -56z" />
<glyph unicode="&#xf3;" horiz-adv-x="1104" d="M41 475q0 139 68 256.5t189 187.5q118 68 255 68q138 0 255.5 -67t187 -186t69.5 -259q0 -136 -68.5 -253t-186.5 -186t-257 -69q-136 0 -255 68.5t-188 186t-69 253.5zM223 475q0 -190 165 -286q77 -45 165 -45q135 0 231.5 97.5t96.5 233.5q0 192 -164 291 q-74 45 -164 45q-188 0 -285 -167q-45 -78 -45 -169zM340 1159l256 340l172 -88l-340 -307z" />
<glyph unicode="&#xf4;" horiz-adv-x="1104" d="M41 475q0 139 68 256.5t189 187.5q118 68 255 68q138 0 255.5 -67t187 -186t69.5 -259q0 -136 -68.5 -253t-186.5 -186t-257 -69q-136 0 -255 68.5t-188 186t-69 253.5zM223 475q0 -190 165 -286q77 -45 165 -45q135 0 231.5 97.5t96.5 233.5q0 192 -164 291 q-74 45 -164 45q-188 0 -285 -167q-45 -78 -45 -169zM223 1209l330 294l328 -294l-121 -97l-207 197l-209 -197z" />
<glyph unicode="&#xf5;" horiz-adv-x="1104" d="M41 475q0 139 68 256.5t189 187.5q118 68 255 68q138 0 255.5 -67t187 -186t69.5 -259q0 -136 -68.5 -253t-186.5 -186t-257 -69q-136 0 -255 68.5t-188 186t-69 253.5zM164 1256q92 164 227 164q54 0 114 -27q12 -6 47 -23l77 -37q19 -9 63 -16q13 0 21 -4q83 0 139 98 l96 -80q-32 -71 -100 -119t-143 -48q-48 6 -77 18l-107 44q-81 33 -117 42h-19q-74 0 -125 -92zM223 475q0 -190 165 -286q77 -45 165 -45q135 0 231.5 97.5t96.5 233.5q0 192 -164 291q-74 45 -164 45q-188 0 -285 -167q-45 -78 -45 -169z" />
<glyph unicode="&#xf6;" horiz-adv-x="1104" d="M41 475q0 139 68 256.5t189 187.5q118 68 255 68q138 0 255.5 -67t187 -186t69.5 -259q0 -136 -68.5 -253t-186.5 -186t-257 -69q-136 0 -255 68.5t-188 186t-69 253.5zM213 1301q0 49 37 86t86 37q51 0 88 -36t37 -87q0 -53 -36 -89t-89 -36q-51 0 -87 37t-36 88z M223 475q0 -190 165 -286q77 -45 165 -45q135 0 231.5 97.5t96.5 233.5q0 192 -164 291q-74 45 -164 45q-188 0 -285 -167q-45 -78 -45 -169zM643 1301q0 49 38 86t87 37q51 0 88 -36t37 -87q0 -53 -36 -89t-89 -36q-51 0 -88 37t-37 88z" />
<glyph unicode="&#xf7;" horiz-adv-x="2364" />
<glyph unicode="&#xf8;" horiz-adv-x="1104" d="M33 17l123 127q-119 157 -119 335q0 132 71.5 252t188 188t256.5 68q186 0 328 -118l131 135l63 -64l-131 -131q121 -155 121 -340q0 -212 -152 -359t-364 -147q-190 0 -330 121l-122 -127zM223 471q0 -103 70 -194l455 467q-88 65 -195 65q-187 0 -282 -171 q-48 -87 -48 -167zM357 209q77 -69 184 -69q88 0 168.5 48t126 125t45.5 166q0 107 -72 197z" />
<glyph unicode="&#xf9;" horiz-adv-x="1049" d="M121 391v570h182v-545q0 -116 56 -196q63 -91 174 -91q215 0 215 287v545h184v-553q0 -267 -171 -390q-90 -65 -228 -65q-242 0 -357 209q-55 100 -55 229zM316 1415l168 88l256 -339l-88 -56z" />
<glyph unicode="&#xfa;" horiz-adv-x="1049" d="M121 391v570h182v-545q0 -116 56 -196q63 -91 174 -91q215 0 215 287v545h184v-553q0 -267 -171 -390q-90 -65 -228 -65q-242 0 -357 209q-55 100 -55 229zM312 1164l256 339l172 -88l-340 -307z" />
<glyph unicode="&#xfb;" horiz-adv-x="1049" d="M121 391v570h182v-545q0 -116 56 -196q63 -91 174 -91q215 0 215 287v545h184v-553q0 -267 -171 -390q-90 -65 -228 -65q-242 0 -357 209q-55 100 -55 229zM197 1209l328 294l327 -294l-121 -97l-206 197l-209 -197z" />
<glyph unicode="&#xfc;" horiz-adv-x="1049" d="M121 387v570h182v-545q0 -116 56 -196q63 -91 174 -91q215 0 215 287v545h184v-553q0 -268 -171 -391q-89 -64 -228 -64q-243 0 -357 208q-55 100 -55 230zM189 1297q0 49 37 86t86 37q51 0 87.5 -36t36.5 -87q0 -54 -35 -89.5t-89 -35.5q-52 0 -87.5 36.5t-35.5 88.5z M621 1297q0 49 37 86t86 37q50 0 87.5 -36.5t37.5 -86.5q0 -52 -36.5 -88.5t-88.5 -36.5t-87.5 36.5t-35.5 88.5z" />
<glyph unicode="&#xfd;" horiz-adv-x="520" d="M131 1405q0 50 39.5 86.5t89.5 36.5q54 0 90.5 -38.5t36.5 -92.5q0 -53 -39 -89t-92 -36q-55 0 -90 38.5t-35 94.5zM168 0v961h185v-961h-185z" />
<glyph unicode="&#xfe;" horiz-adv-x="789" d="M72 180l160 76q54 -127 172 -127q51 0 92.5 32.5t52.5 82.5q0 74 -74 128q-31 23 -72 44l-71 37q-215 112 -215 260q0 62 36 129q78 145 247 145q171 0 264 -168l-152 -79q-42 84 -125 84q-43 0 -70.5 -28t-27.5 -71q0 -57 86 -99l161 -79q199 -98 199 -270 q0 -168 -157 -265q-73 -45 -158 -45q-262 0 -348 213zM259 -299l150 237l122 -51l-180 -235z" />
<glyph unicode="&#xff;" horiz-adv-x="991" d="M-29 961h218l323 -613l299 613h209l-776 -1510h-207l375 713zM156 1301q0 49 38 86t87 37t86 -37t37 -86q0 -52 -35.5 -88.5t-87.5 -36.5t-88.5 36.5t-36.5 88.5zM588 1301q0 50 37.5 86.5t87.5 36.5q51 0 87 -36t36 -87q0 -53 -35 -89t-88 -36q-52 0 -88.5 36.5 t-36.5 88.5z" />
<glyph unicode="&#x152;" horiz-adv-x="2341" d="M41 760q0 341 233.5 580t573.5 239q262 0 483 -164q98 -72 142 -147v276h807v-176h-631v-432h614v-176h-614v-584h631v-176h-807v260q-227 -293 -617 -293q-335 0 -573 228q-242 232 -242 565zM232 760q0 -232 171 -417q180 -195 445 -195q279 0 454 200q163 187 163 412 q0 173 -74 317q-78 152 -220.5 238t-318.5 86q-271 0 -445.5 -184.5t-174.5 -456.5z" />
<glyph unicode="&#x153;" horiz-adv-x="1835" d="M41 449q0 256 170 408q146 130 314 130q129 0 247.5 -57t192.5 -158q141 215 407 215q294 0 395 -274q42 -114 42 -225v-39h-734q15 -137 84 -221q79 -97 209 -97q89 0 166.5 53t114.5 136l160 -92q-80 -155 -262 -227q-86 -34 -175 -34q-280 0 -407 213 q-91 -140 -266 -193q-79 -24 -146 -24q-277 0 -433 240q-79 121 -79 246zM228 496q0 -184 136 -288q67 -51 156 -60q150 0 252 85q109 91 109 238q0 187 -154 291q-73 49 -168 49q-135 0 -232 -89q-99 -92 -99 -226zM1084 588h536q-30 240 -297 240q-94 -10 -159 -79 q-62 -65 -80 -161z" />
<glyph unicode="&#x2c6;" horiz-adv-x="965" d="M152 1209l327 294l330 -294l-121 -97l-209 197l-206 -197z" />
<glyph unicode="&#x2dc;" horiz-adv-x="1045" d="M131 1256q95 164 230 164q55 0 156 -48l78 -37q23 -11 65 -18q12 0 20 -4q87 0 139 98l97 -80q-33 -72 -99 -118q-69 -49 -145 -49q-47 6 -79 19l-105 43q-78 32 -115 42h-20q-75 0 -125 -92z" />
<glyph unicode="&#x2000;" horiz-adv-x="1052" />
<glyph unicode="&#x2001;" horiz-adv-x="2104" />
<glyph unicode="&#x2002;" horiz-adv-x="1052" />
<glyph unicode="&#x2003;" horiz-adv-x="2104" />
<glyph unicode="&#x2004;" horiz-adv-x="701" />
<glyph unicode="&#x2005;" horiz-adv-x="526" />
<glyph unicode="&#x2006;" horiz-adv-x="350" />
<glyph unicode="&#x2007;" horiz-adv-x="350" />
<glyph unicode="&#x2008;" horiz-adv-x="263" />
<glyph unicode="&#x2009;" horiz-adv-x="420" />
<glyph unicode="&#x200a;" horiz-adv-x="116" />
<glyph unicode="&#x2010;" horiz-adv-x="680" d="M117 580v151h446v-151h-446z" />
<glyph unicode="&#x2011;" horiz-adv-x="680" d="M117 580v151h446v-151h-446z" />
<glyph unicode="&#x2012;" horiz-adv-x="680" d="M117 580v151h446v-151h-446z" />
<glyph unicode="&#x2013;" horiz-adv-x="1024" d="M0 580v155h1024v-155h-1024z" />
<glyph unicode="&#x2014;" horiz-adv-x="2048" d="M0 580v151h2048v-151h-2048z" />
<glyph unicode="&#x2018;" horiz-adv-x="568" d="M125 1032l271 545l112 -45l-223 -563z" />
<glyph unicode="&#x2019;" horiz-adv-x="568" d="M56 1016l229 563l160 -63l-273 -547z" />
<glyph unicode="&#x201a;" horiz-adv-x="2364" />
<glyph unicode="&#x201c;" horiz-adv-x="899" d="M125 1032l266 545l117 -45l-223 -563zM465 1032l270 545l113 -49l-223 -563z" />
<glyph unicode="&#x201d;" horiz-adv-x="899" d="M47 1012l230 565l159 -65l-272 -547zM387 1012l230 565l159 -65l-272 -547z" />
<glyph unicode="&#x201e;" horiz-adv-x="899" d="M105 -320l223 564l160 -64l-273 -549zM445 -320l223 564l160 -68l-269 -545z" />
<glyph unicode="&#x2022;" horiz-adv-x="592" d="M176 525q0 50 35.5 84t85.5 34t84.5 -34t34.5 -84q0 -48 -35.5 -84.5t-83.5 -36.5q-49 0 -85 36t-36 85z" />
<glyph unicode="&#x2026;" horiz-adv-x="2048" d="M219 88q0 47 36.5 82t84.5 35t84.5 -35t36.5 -82q0 -49 -36 -85t-85 -36t-85 36t-36 85zM908 88q0 47 34.5 82t81.5 35q48 0 84.5 -35t36.5 -82q0 -49 -36 -85t-85 -36t-82.5 36t-33.5 85zM1587 88q0 47 36.5 82t84.5 35q49 0 85 -34t36 -83q0 -50 -35.5 -85.5 t-85.5 -35.5q-49 0 -85 36t-36 85z" />
<glyph unicode="&#x202f;" horiz-adv-x="420" />
<glyph unicode="&#x2039;" horiz-adv-x="688" d="M43 656l373 493l117 -84l-305 -409l305 -392l-113 -84z" />
<glyph unicode="&#x203a;" horiz-adv-x="688" d="M156 264l305 392l-305 409l113 84l374 -493l-370 -476z" />
<glyph unicode="&#x205f;" horiz-adv-x="526" />
<glyph unicode="&#x2122;" horiz-adv-x="1923" d="M68 1415v129h700v-129h-284v-731h-131v731h-285zM924 684v860h217l248 -608l256 608h211v-860h-131v731l-297 -731h-80l-287 731h-4v-731h-133z" />
<glyph unicode="&#x25fc;" horiz-adv-x="960" d="M0 0v960h960v-960h-960z" />
</font>
</defs>
</svg>
