<?xml version="1.0" standalone="no"?>
<!DOCTYPE svg PUBLIC "-//W3C//DTD SVG 1.1//EN" "//www.w3.org/Graphics/SVG/1.1/DTD/svg11.dtd" >
<svg xmlns="//www.w3.org/2000/svg" xmlns:xlink="//www.w3.org/1999/xlink" version="1.1">
<metadata></metadata>
<defs>
<font id="open_sansextrabold" horiz-adv-x="1276" >
<font-face units-per-em="2048" ascent="1638" descent="-410" />
<missing-glyph horiz-adv-x="532" />
<glyph unicode="ff" horiz-adv-x="1692" d="M827 840h-241v-840h-391v840h-150v192l158 96v19q0 224 91.5 322t293.5 98q78 0 147.5 -12t161.5 -42l-84 -253q-72 20 -141 20q-45 0 -65.5 -27.5t-20.5 -89.5v-30h241v-293zM1673 840h-241v-840h-391v840h-150v192l158 96v19q0 224 91.5 322t293.5 98q78 0 147.5 -12 t161.5 -42l-84 -253q-72 20 -141 20q-45 0 -65.5 -27.5t-20.5 -89.5v-30h241v-293z" />
<glyph unicode="&#xfb01;" horiz-adv-x="1511" d="M1374 0h-391v1133h391v-1133zM973 1415q0 88 49 131t158 43t159 -44t50 -130q0 -172 -209 -172q-207 0 -207 172zM827 840h-241v-840h-391v840h-150v192l158 96v19q0 224 91.5 322t293.5 98q78 0 147.5 -12t161.5 -42l-84 -253q-72 20 -141 20q-45 0 -65.5 -27.5 t-20.5 -89.5v-30h241v-293z" />
<glyph unicode="&#xfb02;" horiz-adv-x="1507" d="M1372 0h-391v1556h391v-1556zM827 840h-241v-840h-391v840h-150v192l158 96v19q0 224 91.5 322t293.5 98q78 0 147.5 -12t161.5 -42l-84 -253q-72 20 -141 20q-45 0 -65.5 -27.5t-20.5 -89.5v-30h241v-293z" />
<glyph unicode="&#xfb03;" horiz-adv-x="2357" d="M827 840h-241v-840h-391v840h-150v192l158 96v19q0 224 91.5 322t293.5 98q78 0 147.5 -12t161.5 -42l-84 -253q-72 20 -141 20q-45 0 -65.5 -27.5t-20.5 -89.5v-30h241v-293zM1673 840h-241v-840h-391v840h-150v192l158 96v19q0 224 91.5 322t293.5 98q78 0 147.5 -12 t161.5 -42l-84 -253q-72 20 -141 20q-45 0 -65.5 -27.5t-20.5 -89.5v-30h241v-293zM2220 0h-391v1133h391v-1133zM1819 1415q0 88 49 131t158 43t159 -44t50 -130q0 -172 -209 -172q-207 0 -207 172z" />
<glyph unicode="&#xfb04;" horiz-adv-x="2353" d="M827 840h-241v-840h-391v840h-150v192l158 96v19q0 224 91.5 322t293.5 98q78 0 147.5 -12t161.5 -42l-84 -253q-72 20 -141 20q-45 0 -65.5 -27.5t-20.5 -89.5v-30h241v-293zM1673 840h-241v-840h-391v840h-150v192l158 96v19q0 224 91.5 322t293.5 98q78 0 147.5 -12 t161.5 -42l-84 -253q-72 20 -141 20q-45 0 -65.5 -27.5t-20.5 -89.5v-30h241v-293zM2218 0h-391v1556h391v-1556z" />
<glyph unicode="&#xd;" horiz-adv-x="1044" />
<glyph unicode=" "  horiz-adv-x="532" />
<glyph unicode="&#x09;" horiz-adv-x="532" />
<glyph unicode="&#xa0;" horiz-adv-x="532" />
<glyph unicode="!" horiz-adv-x="594" d="M463 516h-330l-51 946h432zM86 166q0 91 54 141.5t157 50.5q102 0 154.5 -50.5t52.5 -141.5q0 -90 -54.5 -140.5t-152.5 -50.5q-99 0 -155 50.5t-56 140.5z" />
<glyph unicode="&#x22;" horiz-adv-x="1073" d="M477 1462l-41 -528h-274l-41 528h356zM952 1462l-41 -528h-274l-41 528h356z" />
<glyph unicode="#" horiz-adv-x="1356" d="M1042 813l-30 -168h243v-254h-290l-74 -391h-268l73 391h-168l-71 -391h-267l72 391h-225v254h274l31 168h-238v260h287l72 389h268l-74 -389h166l72 389h268l-73 -389h229v-260h-277zM578 645h165l31 168h-166z" />
<glyph unicode="$" horiz-adv-x="1200" d="M504 68q-219 10 -422 98v332q116 -59 252 -98.5t239 -39.5q85 0 124.5 20.5t39.5 68.5q0 33 -28.5 56t-95 52t-179.5 70q-127 47 -205 105.5t-113.5 131t-35.5 180.5q0 165 106 258t318 115v137h207v-135q199 -11 401 -98l-119 -285q-209 94 -377 94q-80 0 -112.5 -19.5 t-32.5 -57.5q0 -33 23.5 -54.5t81.5 -48t161 -61.5q209 -74 300 -168.5t91 -243.5q0 -168 -106.5 -273t-310.5 -130v-193h-207v187zM613 1462z" />
<glyph unicode="%" horiz-adv-x="1942" d="M338 1022q0 -115 19 -166t57 -51t56.5 50t18.5 167q0 115 -18.5 166t-56.5 51q-39 0 -57.5 -52t-18.5 -165zM791 1026q0 -220 -99 -340.5t-282 -120.5q-172 0 -272.5 124.5t-100.5 336.5q0 220 98 338.5t275 118.5q175 0 278 -123t103 -334zM1520 1462l-811 -1462h-297 l811 1462h297zM1450 440q0 -115 19 -166t57 -51q43 0 59.5 58.5t16.5 158.5t-16.5 158.5t-59.5 58.5q-39 0 -57.5 -52t-18.5 -165zM1903 444q0 -219 -99.5 -339.5t-281.5 -120.5q-172 0 -272.5 124.5t-100.5 335.5q0 220 98 338.5t275 118.5q175 0 278 -123t103 -334z" />
<glyph unicode="&#x26;" horiz-adv-x="1636" d="M1141 0l-99 102q-90 -57 -147.5 -78.5t-129 -32.5t-163.5 -11q-158 0 -279.5 54t-186 151t-64.5 221q0 262 272 401q-62 70 -96.5 148.5t-34.5 177.5q0 160 123.5 254t339.5 94q211 0 328.5 -93.5t117.5 -254.5q0 -111 -63.5 -205.5t-200.5 -177.5l199 -189 q75 115 104 260h406q-30 -138 -94.5 -276.5t-145.5 -237.5l320 -307h-506zM475 434q0 -63 45 -103t119 -40q57 0 100 15t66 34l-248 252q-82 -61 -82 -158zM770 1133q0 49 -28.5 70.5t-71.5 21.5q-42 0 -73.5 -25t-31.5 -80q0 -75 88 -155q57 32 87 76.5t30 91.5z" />
<glyph unicode="'" horiz-adv-x="598" d="M477 1462l-41 -528h-274l-41 528h356z" />
<glyph unicode="(" horiz-adv-x="735" d="M74 582q0 290 71 523t209 398h326q-126 -175 -194 -412t-68 -507q0 -261 66 -495.5t194 -412.5h-324q-137 158 -208.5 388t-71.5 518zM493 1485z" />
<glyph unicode=")" horiz-adv-x="735" d="M662 582q0 -283 -71.5 -514.5t-209.5 -391.5h-324q126 172 193 408.5t67 499.5q0 265 -66 501.5t-196 417.5h326q139 -166 210 -402t71 -519zM247 1485z" />
<glyph unicode="*" horiz-adv-x="1100" d="M702 1556l-38 -352l356 101l37 -295l-314 -21l207 -278l-260 -138l-143 283l-123 -281l-272 136l206 278l-313 25l45 291l348 -101l-39 352h303z" />
<glyph unicode="+" horiz-adv-x="1159" d="M444 588h-372v268h372v367h269v-367h372v-268h-372v-361h-269v361z" />
<glyph unicode="," horiz-adv-x="633" d="M498 299l14 -23q-97 -381 -176 -561h-279q29 138 58.5 309.5t40.5 274.5h342z" />
<glyph unicode="-" horiz-adv-x="651" d="M43 393v312h565v-312h-565z" />
<glyph unicode="." horiz-adv-x="592" d="M86 166q0 92 54.5 142t158.5 50q99 0 152 -50t53 -142q0 -90 -54.5 -140.5t-150.5 -50.5q-99 0 -156 50t-57 141z" />
<glyph unicode="/" horiz-adv-x="905" d="M901 1483l-545 -1503h-346l545 1503h346z" />
<glyph unicode="0" horiz-adv-x="1200" d="M1128 729q0 -388 -130 -568.5t-398 -180.5q-262 0 -395 188.5t-133 560.5q0 390 130 572t398 182q261 0 394.5 -189.5t133.5 -564.5zM465 729q0 -248 31 -341t104 -93q74 0 104.5 96t30.5 338q0 243 -31 340.5t-104 97.5t-104 -94t-31 -344z" />
<glyph unicode="1" horiz-adv-x="1200" d="M942 0h-401v774q0 141 6 258q-37 -45 -92 -94l-166 -137l-205 252l502 409h356v-1462z" />
<glyph unicode="2" horiz-adv-x="1200" d="M1122 0h-1061v260l357 361q153 160 200 218.5t65.5 100.5t18.5 88q0 57 -37 90t-104 33q-69 0 -139.5 -39.5t-159.5 -116.5l-217 254q113 101 190 144.5t167.5 66.5t203.5 23q142 0 253.5 -50t173 -142.5t61.5 -207.5q0 -86 -21.5 -159t-66.5 -143.5t-119.5 -148.5 t-317.5 -296v-10h553v-326z" />
<glyph unicode="3" horiz-adv-x="1200" d="M1073 1145q0 -136 -83 -233.5t-240 -141.5v-6q366 -46 366 -346q0 -204 -161.5 -321t-448.5 -117q-118 0 -218.5 17t-217.5 62v328q96 -49 195.5 -72.5t183.5 -23.5q130 0 189.5 36.5t59.5 114.5q0 60 -31 92.5t-100 49t-180 16.5h-90v297h92q301 0 301 154 q0 58 -44.5 86t-119.5 28q-140 0 -290 -94l-164 264q116 80 237.5 114t278.5 34q227 0 356 -90t129 -248z" />
<glyph unicode="4" horiz-adv-x="1200" d="M1169 283h-161v-283h-390v283h-583v290l608 889h365v-884h161v-295zM618 578v170q0 48 3.5 129.5t5.5 85.5h-11q-34 -77 -77 -144l-162 -241h241z" />
<glyph unicode="5" horiz-adv-x="1200" d="M664 958q126 0 227.5 -58.5t158 -165.5t56.5 -247q0 -245 -147.5 -376t-446.5 -131q-256 0 -418 79v324q87 -40 196.5 -66t188.5 -26q110 0 169 46.5t59 137.5q0 84 -60 131t-182 47q-93 0 -201 -35l-145 72l55 772h834v-329h-498l-18 -193q78 15 111 16.5t61 1.5z" />
<glyph unicode="6" horiz-adv-x="1200" d="M70 618q0 306 87.5 495.5t258 279.5t420.5 90q89 0 208 -17v-309q-100 19 -217 19q-198 0 -295 -87t-106 -284h12q90 170 289 170q195 0 302.5 -125.5t107.5 -349.5q0 -241 -136 -380.5t-380 -139.5q-259 0 -405 168t-146 470zM612 293q63 0 102.5 47.5t39.5 151.5 q0 178 -138 178q-68 0 -110.5 -46t-42.5 -112q0 -96 41 -157.5t108 -61.5z" />
<glyph unicode="7" horiz-adv-x="1200" d="M209 0l502 1133h-633v327h1055v-233l-515 -1227h-409z" />
<glyph unicode="8" horiz-adv-x="1200" d="M604 1483q231 0 359.5 -93t128.5 -264q0 -116 -60.5 -203.5t-191.5 -152.5q162 -92 228.5 -183.5t66.5 -197.5q0 -195 -141 -302t-394 -107q-258 0 -395 104.5t-137 300.5q0 127 61 216.5t205 162.5q-116 78 -169.5 167.5t-53.5 196.5q0 168 131 261.5t362 93.5zM430 401 q0 -62 44 -99.5t122 -37.5q176 0 176 129q0 49 -38.5 96.5t-137.5 106.5q-89 -47 -127.5 -94.5t-38.5 -100.5zM602 1198q-51 0 -86 -29.5t-35 -76.5q0 -86 117 -152q71 41 97 75t26 77q0 48 -35 77t-84 29z" />
<glyph unicode="9" horiz-adv-x="1200" d="M1133 793q0 -429 -185 -621t-592 -192q-134 0 -204 10v313q86 -16 172 -16q212 0 327 87.5t125 276.5h-12q-39 -72 -77 -104t-93 -49t-137 -17q-190 0 -297 127t-107 350q0 243 138.5 381t379.5 138q268 0 415 -178t147 -506zM582 1161q-65 0 -105.5 -47t-40.5 -151 q0 -82 35 -130.5t107 -48.5q65 0 113 47t48 113q0 89 -44.5 153t-112.5 64z" />
<glyph unicode=":" horiz-adv-x="592" d="M86 166q0 92 54.5 142t158.5 50q99 0 152 -50t53 -142q0 -90 -54.5 -140.5t-150.5 -50.5q-99 0 -156 50t-57 141zM86 956q0 91 55 141t158 50q99 0 152 -50t53 -141q0 -90 -54 -141t-151 -51q-102 0 -157.5 51t-55.5 141z" />
<glyph unicode=";" horiz-adv-x="608" d="M498 299l14 -23q-97 -381 -176 -561h-279q29 138 58.5 309.5t40.5 274.5h342zM92 956q0 91 53.5 141t157.5 50q100 0 153.5 -50.5t53.5 -140.5t-54 -141t-153 -51q-102 0 -156.5 50.5t-54.5 141.5z" />
<glyph unicode="&#x3c;" horiz-adv-x="1159" d="M1083 178l-1011 449v172l1011 506v-297l-620 -283l620 -252v-295z" />
<glyph unicode="=" horiz-adv-x="1159" d="M72 815v268h1015v-268h-1015zM72 358v271h1015v-271h-1015z" />
<glyph unicode="&#x3e;" horiz-adv-x="1159" d="M72 473l620 252l-620 283v297l1011 -506v-172l-1011 -449v295z" />
<glyph unicode="?" horiz-adv-x="1034" d="M295 516v86q0 98 40 165.5t142 131.5q81 51 116.5 92t35.5 94q0 42 -38 66.5t-99 24.5q-151 0 -353 -107l-139 272q249 142 520 142q223 0 350 -98t127 -267q0 -121 -56.5 -209.5t-180.5 -167.5q-105 -68 -131.5 -99.5t-26.5 -74.5v-51h-307zM252 166q0 92 53.5 142 t157.5 50q100 0 153.5 -50.5t53.5 -141.5t-55.5 -141t-151.5 -50q-99 0 -155 49.5t-56 141.5z" />
<glyph unicode="@" horiz-adv-x="1837" d="M1755 756q0 -141 -48.5 -263t-134.5 -191t-196 -69q-79 0 -143 31.5t-100 87.5h-15q-107 -119 -260 -119q-183 0 -281 107t-98 299q0 141 62 249.5t179 167t271 58.5q81 0 178.5 -16.5t178.5 -44.5l-21 -422l-2 -94q0 -86 49 -86q52 0 84.5 87t32.5 220q0 239 -135 369 t-383 130q-190 0 -330.5 -79t-214.5 -226.5t-74 -345.5q0 -255 142.5 -393.5t402.5 -138.5q116 0 250.5 25t263.5 71v-229q-224 -95 -500 -95q-388 0 -609.5 202.5t-221.5 561.5q0 253 114.5 453.5t316 309t456.5 108.5q234 0 413.5 -89t276 -253.5t96.5 -382.5zM760 641 q0 -100 36.5 -145t96.5 -45q77 0 113 62t47 220l10 156q-40 6 -68 6q-108 0 -171.5 -67t-63.5 -187z" />
<glyph unicode="A" horiz-adv-x="1487" d="M1055 0l-72 274h-475l-74 -274h-434l477 1468h527l483 -1468h-432zM901 598l-63 240q-22 80 -53.5 207t-41.5 182q-9 -51 -35.5 -168t-117.5 -461h311z" />
<glyph unicode="B" horiz-adv-x="1380" d="M158 1462h510q298 0 442.5 -88.5t144.5 -275.5q0 -123 -63 -210t-166 -112v-10q136 -36 197 -120t61 -218q0 -199 -149.5 -313.5t-407.5 -114.5h-569v1462zM553 901h119q85 0 131.5 35t46.5 104q0 123 -186 123h-111v-262zM553 612v-307h139q185 0 185 156 q0 73 -49.5 112t-143.5 39h-131z" />
<glyph unicode="C" horiz-adv-x="1329" d="M809 1159q-141 0 -220 -115.5t-79 -318.5q0 -422 321 -422q97 0 188 27t183 65v-334q-183 -81 -414 -81q-331 0 -507.5 192t-176.5 555q0 227 85.5 399t246 264.5t377.5 92.5q237 0 453 -103l-121 -311q-81 38 -162 64t-174 26z" />
<glyph unicode="D" horiz-adv-x="1503" d="M1399 762q0 -366 -201.5 -564t-566.5 -198h-473v1462h506q352 0 543.5 -180t191.5 -520zM989 748q0 201 -79.5 298t-241.5 97h-115v-819h88q180 0 264 104.5t84 319.5z" />
<glyph unicode="E" horiz-adv-x="1124" d="M1026 0h-868v1462h868v-317h-473v-230h438v-317h-438v-276h473v-322z" />
<glyph unicode="F" horiz-adv-x="1104" d="M547 0h-389v1462h864v-317h-475v-279h438v-317h-438v-549z" />
<glyph unicode="G" horiz-adv-x="1516" d="M745 856h631v-788q-257 -88 -565 -88q-338 0 -522.5 196t-184.5 559q0 354 202 551t566 197q138 0 260.5 -26t213.5 -66l-125 -310q-158 78 -347 78q-173 0 -267.5 -112.5t-94.5 -321.5q0 -205 85.5 -312.5t246.5 -107.5q88 0 162 17v229h-261v305z" />
<glyph unicode="H" horiz-adv-x="1569" d="M1411 0h-397v596h-459v-596h-397v1462h397v-542h459v542h397v-1462z" />
<glyph unicode="I" horiz-adv-x="713" d="M158 0v1462h397v-1462h-397z" />
<glyph unicode="J" horiz-adv-x="721" d="M43 -459q-108 0 -205 21v307q32 -6 68 -13.5t78 -7.5q98 0 140 59t42 202v1353h397v-1319q0 -297 -130 -449.5t-390 -152.5z" />
<glyph unicode="K" horiz-adv-x="1407" d="M1407 0h-446l-289 559l-117 -70v-489h-397v1462h397v-635q30 59 121 187l307 448h432l-461 -655z" />
<glyph unicode="L" horiz-adv-x="1192" d="M158 0v1462h395v-1143h563v-319h-958z" />
<glyph unicode="M" horiz-adv-x="1980" d="M795 0l-299 1053h-9q21 -269 21 -418v-635h-350v1462h526l305 -1038h8l299 1038h527v-1462h-363v641q0 50 1.5 111t13.5 299h-9l-295 -1051h-376z" />
<glyph unicode="N" horiz-adv-x="1708" d="M1550 0h-518l-534 1030h-9q19 -243 19 -371v-659h-350v1462h516l532 -1016h6q-14 221 -14 355v661h352v-1462z" />
<glyph unicode="O" horiz-adv-x="1632" d="M1526 733q0 -369 -181 -561t-530 -192q-344 0 -527.5 193t-183.5 562q0 365 182.5 557.5t530.5 192.5q349 0 529 -191t180 -561zM520 733q0 -424 295 -424q150 0 222.5 103t72.5 321q0 219 -73.5 323.5t-219.5 104.5q-297 0 -297 -428z" />
<glyph unicode="P" horiz-adv-x="1294" d="M1219 997q0 -245 -144.5 -378.5t-410.5 -133.5h-111v-485h-395v1462h506q277 0 416 -121t139 -344zM553 807h72q89 0 141.5 50t52.5 138q0 148 -164 148h-102v-336z" />
<glyph unicode="Q" horiz-adv-x="1632" d="M1526 733q0 -497 -316 -670l357 -411h-492l-258 325l-1 1v1l-1 1q-344 0 -527.5 193t-183.5 562q0 365 182.5 557.5t530.5 192.5q349 0 529 -191t180 -561zM520 733q0 -424 295 -424q150 0 222.5 103t72.5 321q0 219 -73.5 323.5t-219.5 104.5q-297 0 -297 -428z" />
<glyph unicode="R" horiz-adv-x="1386" d="M553 532v-532h-395v1462h479q596 0 596 -432q0 -254 -248 -393l426 -637h-448l-310 532h-100zM553 829h74q207 0 207 183q0 151 -203 151h-78v-334z" />
<glyph unicode="S" horiz-adv-x="1182" d="M1114 444q0 -136 -69 -241.5t-199 -164t-305 -58.5q-146 0 -245 20.5t-206 71.5v352q113 -58 235 -90.5t224 -32.5q88 0 129 30.5t41 78.5q0 30 -16.5 52.5t-53 45.5t-194.5 94q-143 65 -214.5 126t-106 140t-34.5 187q0 202 147 315t404 113q227 0 463 -105l-121 -305 q-205 94 -354 94q-77 0 -112 -27t-35 -67q0 -43 44.5 -77t241.5 -124q189 -85 262.5 -182.5t73.5 -245.5z" />
<glyph unicode="T" horiz-adv-x="1210" d="M803 0h-395v1139h-357v323h1108v-323h-356v-1139z" />
<glyph unicode="U" horiz-adv-x="1550" d="M1401 1462v-880q0 -287 -162.5 -444.5t-468.5 -157.5q-299 0 -459.5 153t-160.5 440v889h397v-858q0 -155 58 -225t171 -70q121 0 175.5 69.5t54.5 227.5v856h395z" />
<glyph unicode="V" horiz-adv-x="1421" d="M979 1462h442l-479 -1462h-465l-477 1462h444l199 -741q62 -247 68 -344q7 70 28 175t37 165z" />
<glyph unicode="W" horiz-adv-x="2128" d="M1737 0h-467l-140 637q-10 40 -31.5 159t-31.5 199q-8 -65 -26 -161.5t-35.5 -177.5t-145.5 -656h-467l-362 1462h381l159 -733q54 -243 74 -387q13 102 46.5 277t62.5 290l129 553h366l125 -553q32 -133 65 -307t44 -260q13 111 71 385l162 735h381z" />
<glyph unicode="X" horiz-adv-x="1481" d="M1475 0h-457l-285 457l-282 -457h-447l485 748l-456 714h438l264 -452l254 452h451l-463 -745z" />
<glyph unicode="Y" horiz-adv-x="1360" d="M680 920l252 542h428l-481 -891v-571h-398v559l-481 903h430z" />
<glyph unicode="Z" horiz-adv-x="1251" d="M1200 0h-1139v244l633 899h-618v319h1108v-243l-633 -900h649v-319z" />
<glyph unicode="[" horiz-adv-x="664" d="M616 -344h-499v1847h499v-254h-182v-1339h182v-254zM355 1485z" />
<glyph unicode="\" horiz-adv-x="905" d="M352 1483l545 -1503h-346l-545 1503h346z" />
<glyph unicode="]" horiz-adv-x="664" d="M47 -90h182v1339h-182v254h500v-1847h-500v254zM317 1485z" />
<glyph unicode="^" horiz-adv-x="1075" d="M-16 502l440 966h170l508 -966h-295l-289 577l-124 -291l-124 -286h-286z" />
<glyph unicode="_" horiz-adv-x="1024" d="M1028 -379h-1032v246h1032v-246z" />
<glyph unicode="`" horiz-adv-x="1225" d="M696 1241q-69 44 -203.5 138.5t-228.5 168.5v21h430q52 -70 203 -233l59 -66v-29h-260z" />
<glyph unicode="a" d="M874 0l-75 150h-8q-79 -98 -161 -134t-212 -36q-160 0 -252 96t-92 270q0 181 126 269.5t365 99.5l189 6v16q0 140 -138 140q-124 0 -315 -84l-113 258q198 102 500 102q218 0 337.5 -108t119.5 -302v-743h-271zM584 256q71 0 121.5 45t50.5 117v88l-90 -4 q-193 -7 -193 -142q0 -104 111 -104z" />
<glyph unicode="b" horiz-adv-x="1317" d="M827 1153q185 0 293.5 -155t108.5 -429q0 -276 -109.5 -432.5t-304.5 -156.5q-63 0 -112 13.5t-87.5 37.5t-89.5 80h-24l-62 -111h-305v1556h391v-352q0 -63 -14 -217h14q57 88 131.5 127t169.5 39zM684 846q-82 0 -120 -57t-38 -179v-55q0 -139 38 -199.5t124 -60.5 q69 0 106 70.5t37 207.5q0 273 -147 273z" />
<glyph unicode="c" horiz-adv-x="1104" d="M651 -20q-278 0 -421.5 150t-143.5 431q0 282 155 437t441 155q197 0 371 -86l-115 -289q-71 31 -131 49.5t-125 18.5q-95 0 -147 -74t-52 -209q0 -272 201 -272q172 0 330 100v-311q-151 -100 -363 -100z" />
<glyph unicode="d" horiz-adv-x="1317" d="M487 -20q-121 0 -211.5 69t-140 203t-49.5 313q0 276 111 432t305 156q95 0 166.5 -38t130.5 -128h8q-19 133 -19 266v303h394v-1556h-295l-84 143h-15q-101 -163 -301 -163zM647 289q94 0 132.5 59t41.5 182v31q0 150 -43 213.5t-135 63.5q-77 0 -119.5 -72.5 t-42.5 -206.5q0 -132 43 -201t123 -69z" />
<glyph unicode="e" horiz-adv-x="1266" d="M682 -20q-283 0 -439.5 150.5t-156.5 428.5q0 287 145 440.5t414 153.5q256 0 395.5 -133.5t139.5 -384.5v-174h-699q4 -95 69.5 -149t178.5 -54q103 0 189.5 19.5t187.5 66.5v-281q-92 -47 -190 -65t-234 -18zM659 887q-69 0 -115.5 -43.5t-54.5 -136.5h336 q-2 82 -46.5 131t-119.5 49z" />
<glyph unicode="f" horiz-adv-x="846" d="M827 840h-241v-840h-391v840h-150v192l158 96v19q0 224 91.5 322t293.5 98q78 0 147.5 -12t161.5 -42l-84 -253q-72 20 -141 20q-45 0 -65.5 -27.5t-20.5 -89.5v-30h241v-293z" />
<glyph unicode="g" horiz-adv-x="1241" d="M1204 1133v-189l-155 -57q32 -58 32 -135q0 -183 -128.5 -284t-383.5 -101q-63 0 -100 8q-14 -26 -14 -49q0 -29 47 -44.5t123 -15.5h188q381 0 381 -321q0 -207 -176.5 -322t-495.5 -115q-241 0 -371.5 80.5t-130.5 231.5q0 203 252 262q-52 22 -90.5 71t-38.5 97 q0 53 29 93.5t121 96.5q-88 39 -138.5 122t-50.5 202q0 185 126 287t360 102q31 0 107 -7t112 -13h395zM350 -141q0 -48 52 -77.5t139 -29.5q142 0 227.5 35.5t85.5 91.5q0 45 -52 63.5t-149 18.5h-153q-63 0 -106.5 -29.5t-43.5 -72.5zM473 762q0 -174 121 -174 q56 0 86.5 43t30.5 129q0 176 -117 176q-121 0 -121 -174z" />
<glyph unicode="h" horiz-adv-x="1372" d="M848 0v618q0 228 -135 228q-96 0 -141.5 -80.5t-45.5 -267.5v-498h-391v1556h391v-221q0 -150 -16 -342h18q56 88 133 124t179 36q190 0 295.5 -109.5t105.5 -306.5v-737h-393z" />
<glyph unicode="i" horiz-adv-x="666" d="M528 0h-391v1133h391v-1133zM127 1415q0 88 49 131t158 43t159 -44t50 -130q0 -172 -209 -172q-207 0 -207 172z" />
<glyph unicode="j" horiz-adv-x="664" d="M106 -492q-48 0 -110.5 7.5t-99.5 17.5v305q64 -18 120 -18q119 0 119 170v1143h391v-1225q0 -187 -109.5 -293.5t-310.5 -106.5zM125 1415q0 88 49 131t158 43t159 -44t50 -130q0 -172 -209 -172q-207 0 -207 172z" />
<glyph unicode="k" horiz-adv-x="1350" d="M514 637q71 113 121 176l254 320h436l-393 -482l418 -651h-447l-248 406l-127 -97v-309h-393v1556h393v-612q0 -157 -22 -307h8z" />
<glyph unicode="l" horiz-adv-x="662" d="M526 0h-391v1556h391v-1556z" />
<glyph unicode="m" horiz-adv-x="2048" d="M1526 0v616q0 115 -31.5 172.5t-99.5 57.5q-90 0 -132 -77t-42 -241v-528h-392v616q0 115 -30 172.5t-97 57.5q-92 0 -134 -82t-42 -268v-496h-391v1133h295l49 -140h23q45 78 130.5 119t194.5 41q245 0 344 -149h31q48 70 133.5 109.5t188.5 39.5q201 0 297 -103 t96 -313v-737h-391z" />
<glyph unicode="n" horiz-adv-x="1372" d="M850 0v618q0 113 -32.5 170.5t-104.5 57.5q-99 0 -143 -79t-44 -271v-496h-391v1133h295l49 -140h23q50 80 138.5 120t203.5 40q188 0 292.5 -109t104.5 -307v-737h-391z" />
<glyph unicode="o" horiz-adv-x="1305" d="M1217 569q0 -278 -149.5 -433.5t-418.5 -155.5q-258 0 -410.5 159t-152.5 430q0 277 149.5 430.5t419.5 153.5q167 0 295 -71t197.5 -203.5t69.5 -309.5zM483 569q0 -146 39 -222.5t131 -76.5q91 0 128.5 76.5t37.5 222.5q0 145 -38 219t-130 74q-90 0 -129 -73.5 t-39 -219.5z" />
<glyph unicode="p" horiz-adv-x="1317" d="M815 -20q-86 0 -154 28.5t-135 102.5h-18q18 -119 18 -148v-455h-391v1625h318l55 -144h18q109 164 301 164q188 0 295 -156t107 -428q0 -274 -111.5 -431.5t-302.5 -157.5zM684 846q-86 0 -120.5 -61.5t-37.5 -182.5v-31q0 -146 39 -211t123 -65q75 0 109 64.5t34 213.5 q0 146 -34 209.5t-113 63.5z" />
<glyph unicode="q" horiz-adv-x="1317" d="M492 -20q-190 0 -298 156t-108 429q0 276 110.5 432t301.5 156q205 0 309 -160h8l29 140h338v-1625h-391v469q0 34 12 166h-12q-96 -163 -299 -163zM651 283q89 0 129.5 55t40.5 186v47q0 150 -41 214.5t-135 64.5q-162 0 -162 -291q0 -148 41 -212t127 -64z" />
<glyph unicode="r" horiz-adv-x="961" d="M819 1153q51 0 97 -8l22 -4l-35 -369q-48 12 -133 12q-128 0 -186 -58.5t-58 -168.5v-557h-391v1133h291l61 -181h19q49 90 136.5 145.5t176.5 55.5z" />
<glyph unicode="s" horiz-adv-x="1092" d="M1010 348q0 -182 -124 -275t-356 -93q-126 0 -219 13.5t-190 49.5v313q91 -40 199.5 -66t193.5 -26q127 0 127 58q0 30 -35.5 53.5t-206.5 91.5q-156 64 -218 145.5t-62 206.5q0 158 122 246t345 88q112 0 210.5 -24.5t204.5 -71.5l-106 -252q-78 35 -165 59.5t-142 24.5 q-96 0 -96 -47q0 -29 33.5 -49.5t193.5 -83.5q119 -49 177.5 -96t86 -110.5t27.5 -154.5z" />
<glyph unicode="t" horiz-adv-x="942" d="M690 289q79 0 189 39v-285q-79 -34 -150.5 -48.5t-167.5 -14.5q-197 0 -284 96.5t-87 296.5v467h-137v159l174 123l101 238h256v-227h278v-293h-278v-441q0 -110 106 -110z" />
<glyph unicode="u" horiz-adv-x="1372" d="M942 0l-49 141h-23q-49 -78 -136.5 -119.5t-205.5 -41.5q-187 0 -291 108.5t-104 306.5v738h391v-619q0 -111 31.5 -168t103.5 -57q101 0 144 79.5t43 268.5v496h391v-1133h-295z" />
<glyph unicode="v" horiz-adv-x="1251" d="M432 0l-432 1133h408l192 -670q1 -5 4 -17t6 -28.5t5.5 -35t2.5 -34.5h7q0 52 18 113l201 672h407l-432 -1133h-387z" />
<glyph unicode="w" horiz-adv-x="1864" d="M1110 0l-128 540l-30 163l-20 131h-6q-49 -280 -66 -353l-115 -481h-411l-309 1133h385l92 -435q44 -224 51 -372h6q3 92 55 350l105 457h432l96 -463q46 -221 58 -344h6q6 76 20 189.5t31 182.5l100 435h377l-311 -1133h-418z" />
<glyph unicode="x" horiz-adv-x="1290" d="M375 578l-346 555h444l172 -318l176 318h445l-355 -555l369 -578h-444l-191 344l-190 -344h-445z" />
<glyph unicode="y" horiz-adv-x="1249" d="M-2 1133h412l192 -650q14 -51 19 -123h8q8 69 24 121l197 652h399l-448 -1205q-86 -230 -211.5 -325t-327.5 -95q-78 0 -160 17v307q53 -12 121 -12q52 0 91 20t68 56.5t62 119.5z" />
<glyph unicode="z" horiz-adv-x="1038" d="M987 0h-938v223l469 611h-442v299h889v-242l-449 -592h471v-299z" />
<glyph unicode="{" horiz-adv-x="887" d="M61 719q115 0 180.5 44.5t65.5 125.5v254q0 139 49 208t159.5 100.5t305.5 31.5v-279q-89 -3 -120.5 -13.5t-50.5 -32.5t-19 -60v-271q0 -113 -56.5 -173.5t-183.5 -78.5v-12q128 -20 184 -79t56 -167v-276q0 -39 21 -61t56 -32.5t113 -13.5v-278q-197 0 -307 32 t-158.5 101.5t-48.5 210.5v248q0 80 -67 125t-179 45v301z" />
<glyph unicode="|" horiz-adv-x="1042" d="M387 1556h268v-2002h-268v2002z" />
<glyph unicode="}" horiz-adv-x="887" d="M825 418q-111 0 -178 -45t-67 -125v-248q0 -140 -49 -210t-159 -102t-306 -32v278q108 4 149 29.5t41 77.5v276q0 108 56 167t184 79v12q-127 18 -183.5 78.5t-56.5 173.5v271q0 39 -19.5 60.5t-50 32t-120.5 13.5v279q196 0 306 -31.5t159 -100.5t49 -208v-254 q0 -81 65 -125.5t180 -44.5v-301z" />
<glyph unicode="~" horiz-adv-x="1159" d="M305 647q-110 0 -233 -121v281q104 108 264 108q69 0 130 -13.5t150 -49.5q131 -55 238 -55q50 0 112.5 32t118.5 89v-281q-105 -109 -264 -109q-71 0 -133.5 15t-146.5 49q-131 55 -236 55z" />
<glyph unicode="&#xa1;" horiz-adv-x="594" d="M133 612h330l51 -946h-432zM510 963q0 -91 -53.5 -142t-157.5 -51q-102 0 -154.5 50.5t-52.5 142.5q0 90 54 140t153 50q101 0 156 -50.5t55 -139.5z" />
<glyph unicode="&#xa2;" horiz-adv-x="1200" d="M565 1483h207v-154q171 -9 324 -84l-115 -289q-71 31 -131 49.5t-125 18.5q-95 0 -147 -74t-52 -209q0 -272 201 -272q172 0 330 100v-311q-127 -82 -285 -98v-180h-207v186q-212 31 -324 176t-112 397q0 240 113 388.5t323 189.5v166z" />
<glyph unicode="&#xa3;" horiz-adv-x="1200" d="M723 1485q210 0 405 -82l-110 -289q-148 55 -252 55q-58 0 -85.5 -33t-27.5 -104v-106h344v-277h-344v-96q0 -150 -159 -227h671v-326h-1061v313q81 47 109.5 76.5t41.5 67.5t13 94v98h-166v277h166v118q0 215 117 328t338 113z" />
<glyph unicode="&#xa4;" horiz-adv-x="1159" d="M180 723q0 89 41 176l-125 119l180 182l123 -123q84 41 172 41q91 0 177 -45l120 127l185 -174l-127 -125q41 -76 41 -178q0 -94 -41 -176l121 -119l-179 -178l-120 119q-89 -39 -177 -39q-100 0 -176 37l-119 -115l-178 178l123 119q-41 82 -41 174zM436 723 q0 -56 40.5 -95.5t94.5 -39.5q58 0 100 38.5t42 96.5t-42 97.5t-100 39.5q-56 0 -95.5 -40.5t-39.5 -96.5z" />
<glyph unicode="&#xa5;" horiz-adv-x="1200" d="M600 958l193 504h399l-363 -712h195v-211h-242v-117h242v-209h-242v-213h-364v213h-246v209h246v117h-246v211h190l-354 712h400z" />
<glyph unicode="&#xa6;" horiz-adv-x="1042" d="M387 1556h268v-839h-268v839zM387 393h268v-839h-268v839z" />
<glyph unicode="&#xa7;" horiz-adv-x="1024" d="M106 803q0 64 43 125t121 108q-141 102 -141 246q0 137 111 216t295 79q191 0 370 -86l-98 -221q-73 40 -146.5 63t-128.5 23q-108 0 -108 -74q0 -43 45.5 -79t128.5 -70q175 -71 252.5 -152t77.5 -178q0 -77 -32 -137.5t-116 -120.5q125 -94 125 -244 q0 -149 -116.5 -237.5t-319.5 -88.5q-204 0 -352 86v244q79 -44 182 -76t172 -32q139 0 139 96q0 42 -31 72.5t-139 78.5q-141 63 -205.5 112t-96.5 108t-32 139zM397 834q0 -51 44 -91t155 -98q41 47 41 107q0 57 -42 100t-140 84q-58 -32 -58 -102z" />
<glyph unicode="&#xa8;" horiz-adv-x="1233" d="M223 1413q0 75 46 116.5t124 41.5q79 0 125.5 -42.5t46.5 -115.5q0 -71 -46.5 -113.5t-125.5 -42.5q-78 0 -124 41t-46 115zM702 1413q0 75 46 116.5t126 41.5t126.5 -43t46.5 -115q0 -71 -46.5 -113.5t-126.5 -42.5q-81 0 -126.5 41.5t-45.5 114.5z" />
<glyph unicode="&#xa9;" horiz-adv-x="1688" d="M887 971q-81 0 -126.5 -61t-45.5 -179q0 -128 43.5 -185t134.5 -57q138 0 258 68v-231q-126 -64 -272 -64q-212 0 -328.5 124t-116.5 349q0 217 113 340t321 123q166 0 322 -78l-92 -205q-106 56 -211 56zM92 731q0 200 100 375t275 276t377 101q197 0 370 -97t277 -272 t104 -383q0 -204 -100.5 -376.5t-273 -273.5t-377.5 -101q-207 0 -382 103.5t-272.5 276.5t-97.5 371zM256 731q0 -158 79.5 -295.5t215.5 -215t293 -77.5q158 0 294 78.5t215 215t79 294.5q0 157 -77.5 293t-214 215.5t-296.5 79.5q-158 0 -294.5 -78.5t-215 -215 t-78.5 -294.5z" />
<glyph unicode="&#xaa;" horiz-adv-x="813" d="M571 741l-45 127q-48 -76 -104.5 -107.5t-138.5 -31.5q-109 0 -171.5 63.5t-62.5 174.5q0 116 77 171t267 64l88 4v6q0 41 -25.5 58.5t-76.5 17.5q-57 0 -107.5 -15t-103.5 -40l-76 166q108 51 180.5 65.5t163.5 14.5q139 0 218 -75.5t79 -213.5v-449h-162zM301 979 q0 -32 18 -50t52 -18q50 0 80 38.5t30 97.5v22l-84 -6q-96 -6 -96 -84z" />
<glyph unicode="&#xab;" horiz-adv-x="1395" d="M74 588l389 483l280 -149l-272 -347l272 -348l-280 -147l-389 481v27zM649 588l387 483l283 -149l-275 -347l275 -348l-283 -147l-387 481v27z" />
<glyph unicode="&#xac;" horiz-adv-x="1159" d="M1085 238h-270v350h-743v268h1013v-618z" />
<glyph unicode="&#xad;" horiz-adv-x="651" d="M43 393v312h565v-312h-565z" />
<glyph unicode="&#xae;" horiz-adv-x="1688" d="M1204 918q0 -87 -33 -146.5t-108 -95.5l194 -363h-290l-146 320h-35v-320h-280v875h291q407 0 407 -270zM786 809h11q58 0 91.5 21.5t33.5 76.5q0 47 -27.5 66.5t-95.5 19.5h-13v-184zM92 731q0 200 100 375t275 276t377 101q197 0 370 -97t277 -272t104 -383 q0 -204 -100.5 -376.5t-273 -273.5t-377.5 -101q-207 0 -382 103.5t-272.5 276.5t-97.5 371zM256 731q0 -158 79.5 -295.5t215.5 -215t293 -77.5q158 0 294 78.5t215 215t79 294.5q0 157 -77.5 293t-214 215.5t-296.5 79.5q-158 0 -294.5 -78.5t-215 -215t-78.5 -294.5z" />
<glyph unicode="&#xaf;" horiz-adv-x="1024" d="M1030 1556h-1036v246h1036v-246z" />
<glyph unicode="&#xb0;" horiz-adv-x="864" d="M63 1114q0 97 49 182.5t135 136t185 50.5t185 -50.5t135 -135.5t49 -183q0 -97 -48.5 -181t-134 -133.5t-186.5 -49.5q-99 0 -185 49t-135 133t-49 182zM301 1114q0 -50 38.5 -88.5t92.5 -38.5t92.5 39t38.5 88q0 52 -37.5 92.5t-93.5 40.5t-93.5 -40.5t-37.5 -92.5z" />
<glyph unicode="&#xb1;" horiz-adv-x="1159" d="M444 684h-372v268h372v367h269v-367h372v-268h-372v-360h-269v360zM72 0v268h1013v-268h-1013z" />
<glyph unicode="&#xb2;" horiz-adv-x="817" d="M750 586h-674v207l215 213q84 84 116.5 129t32.5 79q0 58 -65 58q-81 0 -172 -88l-142 166q80 73 167.5 104t203.5 31q142 0 219.5 -63t77.5 -175q0 -46 -13 -87t-40.5 -84.5t-74.5 -91t-198 -173.5h347v-225z" />
<glyph unicode="&#xb3;" horiz-adv-x="817" d="M725 1266q0 -78 -37 -132.5t-125 -86.5v-9q97 -24 144 -76t47 -139q0 -120 -98 -187t-277 -67q-185 0 -309 70v233q117 -81 297 -81q116 0 116 67q0 41 -32.5 56.5t-102.5 15.5h-104v194h80q71 0 105 18.5t34 59.5q0 25 -21 46.5t-71 21.5t-94 -17t-97 -57l-117 170 q149 115 343 115q146 0 232.5 -57.5t86.5 -157.5z" />
<glyph unicode="&#xb4;" horiz-adv-x="1225" d="M264 1241v29q154 165 195.5 213t68.5 86h428v-21q-80 -64 -220 -163t-212 -144h-260z" />
<glyph unicode="&#xb5;" horiz-adv-x="1376" d="M526 518q0 -115 33.5 -172t112.5 -57q93 0 134.5 83t41.5 265v496h393v-1133h-293l-53 152h-16q-34 -88 -90.5 -130t-122.5 -42q-56 0 -90 20t-62 63q12 -90 12 -235v-320h-391v1625h391v-615z" />
<glyph unicode="&#xb6;" horiz-adv-x="1317" d="M1186 -260h-191v1587h-157v-1587h-191v819q-54 -18 -125 -18q-216 0 -318 125t-102 376q0 256 107.5 385t343.5 129h633v-1816z" />
<glyph unicode="&#xb7;" horiz-adv-x="592" d="M86 723q0 92 54.5 142t158.5 50q99 0 152 -50t53 -142q0 -90 -54.5 -141.5t-150.5 -51.5q-100 0 -156.5 51t-56.5 142z" />
<glyph unicode="&#xb8;" horiz-adv-x="383" d="M397 -252q0 -109 -75 -174.5t-199 -65.5q-136 0 -213 29v205q83 -27 147 -27q52 0 52 47q0 33 -41 58.5t-107 40.5l72 139h203l-9 -29q96 -39 133 -92.5t37 -130.5z" />
<glyph unicode="&#xb9;" horiz-adv-x="817" d="M616 586h-282v356q0 35 3.5 118t6.5 99q-9 -19 -31.5 -43t-109.5 -98l-146 170l340 274h219v-876z" />
<glyph unicode="&#xba;" horiz-adv-x="803" d="M756 1104q0 -174 -95.5 -274.5t-261.5 -100.5q-159 0 -254.5 102.5t-95.5 272.5q0 177 94.5 276t259.5 99q157 0 255 -103t98 -272zM301 1104q0 -87 24 -129.5t76 -42.5q99 0 99 172q0 174 -99 174q-100 0 -100 -174z" />
<glyph unicode="&#xbb;" horiz-adv-x="1395" d="M1321 561l-387 -481l-285 147l275 348l-275 347l285 149l387 -483v-27zM745 561l-387 -481l-282 147l272 348l-272 347l282 149l387 -483v-27z" />
<glyph unicode="&#xbc;" horiz-adv-x="1919" d="M1798 140h-125v-139h-275v139h-370v188l350 555h295v-542h125v-201zM1398 341v166q0 69 7 135q-40 -100 -62 -133l-102 -168h157zM1412 1462l-754 -1462h-301l753 1462h302zM547 586h-282v356q0 35 3.5 118t6.5 99q-9 -19 -31.5 -43t-109.5 -98l-146 170l340 274h219 v-876z" />
<glyph unicode="&#xbd;" horiz-adv-x="1921" d="M1829 1h-674v207l215 213q84 84 116.5 129t32.5 79q0 58 -65 58q-81 0 -172 -88l-142 166q80 73 167.5 104t203.5 31q142 0 219.5 -63t77.5 -175q0 -46 -13 -87t-40.5 -84.5t-74.5 -91t-198 -173.5h347v-225zM1436 1462l-754 -1462h-301l753 1462h302zM547 586h-282v356 q0 35 3.5 118t6.5 99q-9 -19 -31.5 -43t-109.5 -98l-146 170l340 274h219v-876z" />
<glyph unicode="&#xbe;" horiz-adv-x="1921" d="M1870 140h-125v-139h-275v139h-370v188l350 555h295v-542h125v-201zM1470 341v166q0 69 7 135q-40 -100 -62 -133l-102 -168h157zM745 1266q0 -78 -37 -132.5t-125 -86.5v-9q97 -24 144 -76t47 -139q0 -120 -98 -187t-277 -67q-185 0 -309 70v233q117 -81 297 -81 q116 0 116 67q0 41 -32.5 56.5t-102.5 15.5h-104v194h80q71 0 105 18.5t34 59.5q0 25 -21 46.5t-71 21.5t-94 -17t-97 -57l-117 170q149 115 343 115q146 0 232.5 -57.5t86.5 -157.5zM1520 1462l-754 -1462h-301l753 1462h302z" />
<glyph unicode="&#xbf;" horiz-adv-x="1034" d="M739 612v-86q0 -98 -40 -165.5t-142 -131.5q-57 -36 -90 -66t-47 -55.5t-14 -64.5q0 -42 37.5 -66t99.5 -24q148 0 352 106l139 -272q-243 -141 -520 -141q-223 0 -350 98t-127 266q0 120 55 208t182 169q100 64 129 97t29 77v51h307zM782 963q0 -93 -53 -143t-158 -50 q-101 0 -153.5 50t-52.5 143q0 90 54 140t152 50q101 0 156 -49.5t55 -140.5z" />
<glyph unicode="&#xc0;" horiz-adv-x="1487" d="M1055 0l-72 274h-475l-74 -274h-434l477 1468h527l483 -1468h-432zM901 598l-63 240q-22 80 -53.5 207t-41.5 182q-9 -51 -35.5 -168t-117.5 -461h311zM704 1579q-69 44 -203.5 138.5t-228.5 168.5v21h430q52 -70 203 -233l59 -66v-29h-260z" />
<glyph unicode="&#xc1;" horiz-adv-x="1487" d="M1055 0l-72 274h-475l-74 -274h-434l477 1468h527l483 -1468h-432zM901 598l-63 240q-22 80 -53.5 207t-41.5 182q-9 -51 -35.5 -168t-117.5 -461h311zM532 1579v29q154 165 195.5 213t68.5 86h428v-21q-80 -64 -220 -163t-212 -144h-260z" />
<glyph unicode="&#xc2;" horiz-adv-x="1487" d="M1055 0l-72 274h-475l-74 -274h-434l477 1468h527l483 -1468h-432zM901 598l-63 240q-22 80 -53.5 207t-41.5 182q-9 -51 -35.5 -168t-117.5 -461h311zM948 1579q-84 48 -201 150q-125 -107 -194 -150h-258v29q69 65 144.5 153t113.5 146h393q94 -137 256 -299v-29h-254z " />
<glyph unicode="&#xc3;" horiz-adv-x="1487" d="M1055 0l-72 274h-475l-74 -274h-434l477 1468h527l483 -1468h-432zM901 598l-63 240q-22 80 -53.5 207t-41.5 182q-9 -51 -35.5 -168t-117.5 -461h311zM926 1577q-45 0 -90.5 15t-89.5 33t-85.5 33t-78.5 15q-54 0 -72 -98h-180q11 175 72 258.5t180 83.5q38 0 81 -15 t87 -33t87 -33t81 -15q29 0 46 25t26 73h182q-11 -167 -74 -254.5t-172 -87.5z" />
<glyph unicode="&#xc4;" horiz-adv-x="1487" d="M1055 0l-72 274h-475l-74 -274h-434l477 1468h527l483 -1468h-432zM901 598l-63 240q-22 80 -53.5 207t-41.5 182q-9 -51 -35.5 -168t-117.5 -461h311zM352 1751q0 75 46 116.5t124 41.5q79 0 125.5 -42.5t46.5 -115.5q0 -71 -46.5 -113.5t-125.5 -42.5q-78 0 -124 41 t-46 115zM831 1751q0 75 46 116.5t126 41.5t126.5 -43t46.5 -115q0 -71 -46.5 -113.5t-126.5 -42.5q-81 0 -126.5 41.5t-45.5 114.5z" />
<glyph unicode="&#xc5;" horiz-adv-x="1487" d="M1055 0l-72 274h-475l-74 -274h-434l477 1468h527l483 -1468h-432zM901 598l-63 240q-22 80 -53.5 207t-41.5 182q-9 -51 -35.5 -168t-117.5 -461h311zM1011 1616q0 -113 -76 -183.5t-196 -70.5q-121 0 -192.5 68.5t-71.5 183.5q0 116 71.5 185t192.5 69q118 0 195 -70 t77 -182zM823 1614q0 38 -24.5 61t-59.5 23t-59.5 -23t-24.5 -61q0 -37 21 -60.5t63 -23.5q35 0 59.5 23.5t24.5 60.5z" />
<glyph unicode="&#xc6;" horiz-adv-x="1937" d="M1839 0h-870v274h-437l-100 -274h-442l628 1462h1221v-317h-473v-230h438v-317h-438v-276h473v-322zM653 602h316v526h-111z" />
<glyph unicode="&#xc7;" horiz-adv-x="1329" d="M809 1159q-141 0 -220 -115.5t-79 -318.5q0 -422 321 -422q97 0 188 27t183 65v-334q-183 -81 -414 -81q-331 0 -507.5 192t-176.5 555q0 227 85.5 399t246 264.5t377.5 92.5q237 0 453 -103l-121 -311q-81 38 -162 64t-174 26zM964 -252q0 -109 -75 -174.5t-199 -65.5 q-136 0 -213 29v205q83 -27 147 -27q52 0 52 47q0 33 -41 58.5t-107 40.5l72 139h203l-9 -29q96 -39 133 -92.5t37 -130.5z" />
<glyph unicode="&#xc8;" horiz-adv-x="1124" d="M1026 0h-868v1462h868v-317h-473v-230h438v-317h-438v-276h473v-322zM586 1579q-69 44 -203.5 138.5t-228.5 168.5v21h430q52 -70 203 -233l59 -66v-29h-260z" />
<glyph unicode="&#xc9;" horiz-adv-x="1124" d="M1026 0h-868v1462h868v-317h-473v-230h438v-317h-438v-276h473v-322zM362 1579v29q154 165 195.5 213t68.5 86h428v-21q-80 -64 -220 -163t-212 -144h-260z" />
<glyph unicode="&#xca;" horiz-adv-x="1124" d="M1026 0h-868v1462h868v-317h-473v-230h438v-317h-438v-276h473v-322zM804 1579q-84 48 -201 150q-125 -107 -194 -150h-258v29q69 65 144.5 153t113.5 146h393q94 -137 256 -299v-29h-254z" />
<glyph unicode="&#xcb;" horiz-adv-x="1124" d="M1026 0h-868v1462h868v-317h-473v-230h438v-317h-438v-276h473v-322zM187 1751q0 75 46 116.5t124 41.5q79 0 125.5 -42.5t46.5 -115.5q0 -71 -46.5 -113.5t-125.5 -42.5q-78 0 -124 41t-46 115zM666 1751q0 75 46 116.5t126 41.5t126.5 -43t46.5 -115 q0 -71 -46.5 -113.5t-126.5 -42.5q-81 0 -126.5 41.5t-45.5 114.5z" />
<glyph unicode="&#xcc;" horiz-adv-x="713" d="M158 0v1462h397v-1462h-397zM316 1579q-69 44 -203.5 138.5t-228.5 168.5v21h430q52 -70 203 -233l59 -66v-29h-260z" />
<glyph unicode="&#xcd;" horiz-adv-x="713" d="M158 0v1462h397v-1462h-397zM156 1579v29q154 165 195.5 213t68.5 86h428v-21q-80 -64 -220 -163t-212 -144h-260z" />
<glyph unicode="&#xce;" horiz-adv-x="713" d="M158 0v1462h397v-1462h-397zM558 1579q-84 48 -201 150q-125 -107 -194 -150h-258v29q69 65 144.5 153t113.5 146h393q94 -137 256 -299v-29h-254z" />
<glyph unicode="&#xcf;" horiz-adv-x="713" d="M158 0v1462h397v-1462h-397zM-55 1751q0 75 46 116.5t124 41.5q79 0 125.5 -42.5t46.5 -115.5q0 -71 -46.5 -113.5t-125.5 -42.5q-78 0 -124 41t-46 115zM424 1751q0 75 46 116.5t126 41.5t126.5 -43t46.5 -115q0 -71 -46.5 -113.5t-126.5 -42.5q-81 0 -126.5 41.5 t-45.5 114.5z" />
<glyph unicode="&#xd0;" horiz-adv-x="1503" d="M1399 762q0 -366 -201.5 -564t-566.5 -198h-473v563h-127v320h127v579h506q352 0 543.5 -180t191.5 -520zM989 748q0 201 -79.5 298t-241.5 97h-115v-260h211v-320h-211v-239h88q180 0 264 104.5t84 319.5z" />
<glyph unicode="&#xd1;" horiz-adv-x="1708" d="M1550 0h-518l-534 1030h-9q19 -243 19 -371v-659h-350v1462h516l532 -1016h6q-14 221 -14 355v661h352v-1462zM1030 1577q-45 0 -90.5 15t-89.5 33t-85.5 33t-78.5 15q-54 0 -72 -98h-180q11 175 72 258.5t180 83.5q38 0 81 -15t87 -33t87 -33t81 -15q29 0 46 25t26 73 h182q-11 -167 -74 -254.5t-172 -87.5z" />
<glyph unicode="&#xd2;" horiz-adv-x="1632" d="M1526 733q0 -369 -181 -561t-530 -192q-344 0 -527.5 193t-183.5 562q0 365 182.5 557.5t530.5 192.5q349 0 529 -191t180 -561zM520 733q0 -424 295 -424q150 0 222.5 103t72.5 321q0 219 -73.5 323.5t-219.5 104.5q-297 0 -297 -428zM829 1579q-69 44 -203.5 138.5 t-228.5 168.5v21h430q52 -70 203 -233l59 -66v-29h-260z" />
<glyph unicode="&#xd3;" horiz-adv-x="1632" d="M1526 733q0 -369 -181 -561t-530 -192q-344 0 -527.5 193t-183.5 562q0 365 182.5 557.5t530.5 192.5q349 0 529 -191t180 -561zM520 733q0 -424 295 -424q150 0 222.5 103t72.5 321q0 219 -73.5 323.5t-219.5 104.5q-297 0 -297 -428zM583 1579v29q154 165 195.5 213 t68.5 86h428v-21q-80 -64 -220 -163t-212 -144h-260z" />
<glyph unicode="&#xd4;" horiz-adv-x="1632" d="M1526 733q0 -369 -181 -561t-530 -192q-344 0 -527.5 193t-183.5 562q0 365 182.5 557.5t530.5 192.5q349 0 529 -191t180 -561zM520 733q0 -424 295 -424q150 0 222.5 103t72.5 321q0 219 -73.5 323.5t-219.5 104.5q-297 0 -297 -428zM1016 1579q-84 48 -201 150 q-125 -107 -194 -150h-258v29q69 65 144.5 153t113.5 146h393q94 -137 256 -299v-29h-254z" />
<glyph unicode="&#xd5;" horiz-adv-x="1632" d="M1526 733q0 -369 -181 -561t-530 -192q-344 0 -527.5 193t-183.5 562q0 365 182.5 557.5t530.5 192.5q349 0 529 -191t180 -561zM520 733q0 -424 295 -424q150 0 222.5 103t72.5 321q0 219 -73.5 323.5t-219.5 104.5q-297 0 -297 -428zM997 1577q-45 0 -90.5 15t-89.5 33 t-85.5 33t-78.5 15q-54 0 -72 -98h-180q11 175 72 258.5t180 83.5q38 0 81 -15t87 -33t87 -33t81 -15q29 0 46 25t26 73h182q-11 -167 -74 -254.5t-172 -87.5z" />
<glyph unicode="&#xd6;" horiz-adv-x="1632" d="M1526 733q0 -369 -181 -561t-530 -192q-344 0 -527.5 193t-183.5 562q0 365 182.5 557.5t530.5 192.5q349 0 529 -191t180 -561zM520 733q0 -424 295 -424q150 0 222.5 103t72.5 321q0 219 -73.5 323.5t-219.5 104.5q-297 0 -297 -428zM403 1751q0 75 46 116.5t124 41.5 q79 0 125.5 -42.5t46.5 -115.5q0 -71 -46.5 -113.5t-125.5 -42.5q-78 0 -124 41t-46 115zM882 1751q0 75 46 116.5t126 41.5t126.5 -43t46.5 -115q0 -71 -46.5 -113.5t-126.5 -42.5q-81 0 -126.5 41.5t-45.5 114.5z" />
<glyph unicode="&#xd7;" horiz-adv-x="1159" d="M387 723l-266 268l182 189l270 -267l275 267l188 -183l-274 -274l270 -272l-184 -185l-275 271l-270 -269l-180 187z" />
<glyph unicode="&#xd8;" horiz-adv-x="1632" d="M1526 733q0 -369 -181 -561t-530 -192q-177 0 -307 43l-84 -132l-193 125l84 125q-211 194 -211 594q0 365 182.5 557.5t530.5 192.5q191 0 330 -55l76 118l190 -114l-82 -125q195 -189 195 -576zM1110 733q0 125 -18 211l-394 -620q54 -15 117 -15q150 0 222.5 103 t72.5 321zM520 733q0 -155 29 -239l403 639q-68 28 -135 28q-297 0 -297 -428z" />
<glyph unicode="&#xd9;" horiz-adv-x="1550" d="M1401 1462v-880q0 -287 -162.5 -444.5t-468.5 -157.5q-299 0 -459.5 153t-160.5 440v889h397v-858q0 -155 58 -225t171 -70q121 0 175.5 69.5t54.5 227.5v856h395zM712 1579q-69 44 -203.5 138.5t-228.5 168.5v21h430q52 -70 203 -233l59 -66v-29h-260z" />
<glyph unicode="&#xda;" horiz-adv-x="1550" d="M1401 1462v-880q0 -287 -162.5 -444.5t-468.5 -157.5q-299 0 -459.5 153t-160.5 440v889h397v-858q0 -155 58 -225t171 -70q121 0 175.5 69.5t54.5 227.5v856h395zM561 1579v29q154 165 195.5 213t68.5 86h428v-21q-80 -64 -220 -163t-212 -144h-260z" />
<glyph unicode="&#xdb;" horiz-adv-x="1550" d="M1401 1462v-880q0 -287 -162.5 -444.5t-468.5 -157.5q-299 0 -459.5 153t-160.5 440v889h397v-858q0 -155 58 -225t171 -70q121 0 175.5 69.5t54.5 227.5v856h395zM975 1579q-84 48 -201 150q-125 -107 -194 -150h-258v29q69 65 144.5 153t113.5 146h393 q94 -137 256 -299v-29h-254z" />
<glyph unicode="&#xdc;" horiz-adv-x="1550" d="M1401 1462v-880q0 -287 -162.5 -444.5t-468.5 -157.5q-299 0 -459.5 153t-160.5 440v889h397v-858q0 -155 58 -225t171 -70q121 0 175.5 69.5t54.5 227.5v856h395zM362 1751q0 75 46 116.5t124 41.5q79 0 125.5 -42.5t46.5 -115.5q0 -71 -46.5 -113.5t-125.5 -42.5 q-78 0 -124 41t-46 115zM841 1751q0 75 46 116.5t126 41.5t126.5 -43t46.5 -115q0 -71 -46.5 -113.5t-126.5 -42.5q-81 0 -126.5 41.5t-45.5 114.5z" />
<glyph unicode="&#xdd;" horiz-adv-x="1360" d="M680 920l252 542h428l-481 -891v-571h-398v559l-481 903h430zM471 1579v29q154 165 195.5 213t68.5 86h428v-21q-80 -64 -220 -163t-212 -144h-260z" />
<glyph unicode="&#xde;" horiz-adv-x="1284" d="M1219 784q0 -245 -144.5 -378.5t-410.5 -133.5h-111v-272h-395v1462h395v-213h111q277 0 416 -121t139 -344zM553 594h72q89 0 141.5 50t52.5 138q0 148 -164 148h-102v-336z" />
<glyph unicode="&#xdf;" horiz-adv-x="1536" d="M1339 1190q0 -57 -20 -103.5t-49.5 -84t-64.5 -66.5t-64.5 -52t-49.5 -41t-20 -32q0 -23 24.5 -44t93.5 -58q169 -95 228.5 -173t59.5 -202q0 -174 -115 -264t-338 -90q-136 0 -221.5 12.5t-149.5 46.5v291q49 -30 131.5 -55t147.5 -25q61 0 99 23.5t38 62.5 q0 28 -14.5 47t-50.5 42.5t-121 68.5q-126 67 -175 124.5t-49 137.5q0 122 140 218q75 52 107 91.5t32 83.5q0 51 -49.5 85t-140.5 34q-222 0 -222 -209v-1059h-391v1100q0 215 167 341t446 126q276 0 433.5 -99.5t157.5 -277.5z" />
<glyph unicode="&#xe0;" d="M874 0l-75 150h-8q-79 -98 -161 -134t-212 -36q-160 0 -252 96t-92 270q0 181 126 269.5t365 99.5l189 6v16q0 140 -138 140q-124 0 -315 -84l-113 258q198 102 500 102q218 0 337.5 -108t119.5 -302v-743h-271zM584 256q71 0 121.5 45t50.5 117v88l-90 -4 q-193 -7 -193 -142q0 -104 111 -104zM636 1241q-69 44 -203.5 138.5t-228.5 168.5v21h430q52 -70 203 -233l59 -66v-29h-260z" />
<glyph unicode="&#xe1;" d="M874 0l-75 150h-8q-79 -98 -161 -134t-212 -36q-160 0 -252 96t-92 270q0 181 126 269.5t365 99.5l189 6v16q0 140 -138 140q-124 0 -315 -84l-113 258q198 102 500 102q218 0 337.5 -108t119.5 -302v-743h-271zM584 256q71 0 121.5 45t50.5 117v88l-90 -4 q-193 -7 -193 -142q0 -104 111 -104zM434 1241v29q154 165 195.5 213t68.5 86h428v-21q-80 -64 -220 -163t-212 -144h-260z" />
<glyph unicode="&#xe2;" d="M874 0l-75 150h-8q-79 -98 -161 -134t-212 -36q-160 0 -252 96t-92 270q0 181 126 269.5t365 99.5l189 6v16q0 140 -138 140q-124 0 -315 -84l-113 258q198 102 500 102q218 0 337.5 -108t119.5 -302v-743h-271zM584 256q71 0 121.5 45t50.5 117v88l-90 -4 q-193 -7 -193 -142q0 -104 111 -104zM850 1238q-84 48 -201 150q-125 -107 -194 -150h-258v29q69 65 144.5 153t113.5 146h393q94 -137 256 -299v-29h-254z" />
<glyph unicode="&#xe3;" d="M874 0l-75 150h-8q-79 -98 -161 -134t-212 -36q-160 0 -252 96t-92 270q0 181 126 269.5t365 99.5l189 6v16q0 140 -138 140q-124 0 -315 -84l-113 258q198 102 500 102q218 0 337.5 -108t119.5 -302v-743h-271zM584 256q71 0 121.5 45t50.5 117v88l-90 -4 q-193 -7 -193 -142q0 -104 111 -104zM840 1239q-45 0 -90.5 15t-89.5 33t-85.5 33t-78.5 15q-54 0 -72 -98h-180q11 175 72 258.5t180 83.5q38 0 81 -15t87 -33t87 -33t81 -15q29 0 46 25t26 73h182q-11 -167 -74 -254.5t-172 -87.5z" />
<glyph unicode="&#xe4;" d="M874 0l-75 150h-8q-79 -98 -161 -134t-212 -36q-160 0 -252 96t-92 270q0 181 126 269.5t365 99.5l189 6v16q0 140 -138 140q-124 0 -315 -84l-113 258q198 102 500 102q218 0 337.5 -108t119.5 -302v-743h-271zM584 256q71 0 121.5 45t50.5 117v88l-90 -4 q-193 -7 -193 -142q0 -104 111 -104zM268 1413q0 75 46 116.5t124 41.5q79 0 125.5 -42.5t46.5 -115.5q0 -71 -46.5 -113.5t-125.5 -42.5q-78 0 -124 41t-46 115zM747 1413q0 75 46 116.5t126 41.5t126.5 -43t46.5 -115q0 -71 -46.5 -113.5t-126.5 -42.5q-81 0 -126.5 41.5 t-45.5 114.5z" />
<glyph unicode="&#xe5;" d="M874 0l-75 150h-8q-79 -98 -161 -134t-212 -36q-160 0 -252 96t-92 270q0 181 126 269.5t365 99.5l189 6v16q0 140 -138 140q-124 0 -315 -84l-113 258q198 102 500 102q218 0 337.5 -108t119.5 -302v-743h-271zM584 256q71 0 121.5 45t50.5 117v88l-90 -4 q-193 -7 -193 -142q0 -104 111 -104zM925 1491q0 -113 -76 -183.5t-196 -70.5q-121 0 -192.5 68.5t-71.5 183.5q0 116 71.5 185t192.5 69q118 0 195 -70t77 -182zM737 1489q0 38 -24.5 61t-59.5 23t-59.5 -23t-24.5 -61q0 -37 21 -60.5t63 -23.5q35 0 59.5 23.5t24.5 60.5z " />
<glyph unicode="&#xe6;" horiz-adv-x="1915" d="M1341 -20q-280 0 -430 190q-80 -83 -141.5 -120.5t-138.5 -53.5t-197 -16q-162 0 -261 101.5t-99 270.5q0 345 497 363l183 6v18q0 138 -136 138q-138 0 -313 -80l-110 256q190 100 454 100q201 0 336 -94q70 49 153 71.5t199 22.5q229 0 360.5 -136.5t131.5 -383.5v-172 h-696q4 -90 74 -146.5t186 -56.5q194 0 364 86v-281q-94 -48 -191 -65.5t-225 -17.5zM756 506l-84 -4q-106 -4 -152.5 -38.5t-46.5 -107.5q0 -100 113 -100q69 0 119.5 45t50.5 117v88zM1315 887q-162 0 -176 -180h340q-2 82 -48 131t-116 49z" />
<glyph unicode="&#xe7;" horiz-adv-x="1104" d="M651 -20q-278 0 -421.5 150t-143.5 431q0 282 155 437t441 155q197 0 371 -86l-115 -289q-71 31 -131 49.5t-125 18.5q-95 0 -147 -74t-52 -209q0 -272 201 -272q172 0 330 100v-311q-151 -100 -363 -100zM848 -252q0 -109 -75 -174.5t-199 -65.5q-136 0 -213 29v205 q83 -27 147 -27q52 0 52 47q0 33 -41 58.5t-107 40.5l72 139h203l-9 -29q96 -39 133 -92.5t37 -130.5z" />
<glyph unicode="&#xe8;" horiz-adv-x="1266" d="M682 -20q-283 0 -439.5 150.5t-156.5 428.5q0 287 145 440.5t414 153.5q256 0 395.5 -133.5t139.5 -384.5v-174h-699q4 -95 69.5 -149t178.5 -54q103 0 189.5 19.5t187.5 66.5v-281q-92 -47 -190 -65t-234 -18zM659 887q-69 0 -115.5 -43.5t-54.5 -136.5h336 q-2 82 -46.5 131t-119.5 49zM621 1241q-69 44 -203.5 138.5t-228.5 168.5v21h430q52 -70 203 -233l59 -66v-29h-260z" />
<glyph unicode="&#xe9;" horiz-adv-x="1266" d="M682 -20q-283 0 -439.5 150.5t-156.5 428.5q0 287 145 440.5t414 153.5q256 0 395.5 -133.5t139.5 -384.5v-174h-699q4 -95 69.5 -149t178.5 -54q103 0 189.5 19.5t187.5 66.5v-281q-92 -47 -190 -65t-234 -18zM659 887q-69 0 -115.5 -43.5t-54.5 -136.5h336 q-2 82 -46.5 131t-119.5 49zM471 1241v29q154 165 195.5 213t68.5 86h428v-21q-80 -64 -220 -163t-212 -144h-260z" />
<glyph unicode="&#xea;" horiz-adv-x="1266" d="M682 -20q-283 0 -439.5 150.5t-156.5 428.5q0 287 145 440.5t414 153.5q256 0 395.5 -133.5t139.5 -384.5v-174h-699q4 -95 69.5 -149t178.5 -54q103 0 189.5 19.5t187.5 66.5v-281q-92 -47 -190 -65t-234 -18zM659 887q-69 0 -115.5 -43.5t-54.5 -136.5h336 q-2 82 -46.5 131t-119.5 49zM858 1241q-84 48 -201 150q-125 -107 -194 -150h-258v29q69 65 144.5 153t113.5 146h393q94 -137 256 -299v-29h-254z" />
<glyph unicode="&#xeb;" horiz-adv-x="1266" d="M682 -20q-283 0 -439.5 150.5t-156.5 428.5q0 287 145 440.5t414 153.5q256 0 395.5 -133.5t139.5 -384.5v-174h-699q4 -95 69.5 -149t178.5 -54q103 0 189.5 19.5t187.5 66.5v-281q-92 -47 -190 -65t-234 -18zM659 887q-69 0 -115.5 -43.5t-54.5 -136.5h336 q-2 82 -46.5 131t-119.5 49zM252 1413q0 75 46 116.5t124 41.5q79 0 125.5 -42.5t46.5 -115.5q0 -71 -46.5 -113.5t-125.5 -42.5q-78 0 -124 41t-46 115zM731 1413q0 75 46 116.5t126 41.5t126.5 -43t46.5 -115q0 -71 -46.5 -113.5t-126.5 -42.5q-81 0 -126.5 41.5 t-45.5 114.5z" />
<glyph unicode="&#xec;" horiz-adv-x="666" d="M528 0h-391v1133h391v-1133zM302 1241q-69 44 -203.5 138.5t-228.5 168.5v21h430q52 -70 203 -233l59 -66v-29h-260z" />
<glyph unicode="&#xed;" horiz-adv-x="666" d="M528 0h-391v1133h391v-1133zM107 1241v29q154 165 195.5 213t68.5 86h428v-21q-80 -64 -220 -163t-212 -144h-260z" />
<glyph unicode="&#xee;" horiz-adv-x="666" d="M528 0h-391v1133h391v-1133zM533 1241q-84 48 -201 150q-125 -107 -194 -150h-258v29q69 65 144.5 153t113.5 146h393q94 -137 256 -299v-29h-254z" />
<glyph unicode="&#xef;" horiz-adv-x="666" d="M528 0h-391v1133h391v-1133zM-61 1413q0 75 46 116.5t124 41.5q79 0 125.5 -42.5t46.5 -115.5q0 -71 -46.5 -113.5t-125.5 -42.5q-78 0 -124 41t-46 115zM418 1413q0 75 46 116.5t126 41.5t126.5 -43t46.5 -115q0 -71 -46.5 -113.5t-126.5 -42.5q-81 0 -126.5 41.5 t-45.5 114.5z" />
<glyph unicode="&#xf0;" horiz-adv-x="1313" d="M1217 580q0 -275 -152.5 -437.5t-415.5 -162.5q-259 0 -410 139t-151 379q0 239 130.5 377.5t348.5 138.5q192 0 244 -84l8 4q-67 130 -143 207l-182 -119l-117 184l143 92l-149 93l108 182q174 -73 266 -135l209 137l115 -182l-145 -97q159 -157 226 -327.5t67 -388.5z M817 545q0 84 -45 136t-119 52q-92 0 -128 -56t-36 -177q0 -242 164 -242q91 0 127.5 71t36.5 216z" />
<glyph unicode="&#xf1;" horiz-adv-x="1372" d="M850 0v618q0 113 -32.5 170.5t-104.5 57.5q-99 0 -143 -79t-44 -271v-496h-391v1133h295l49 -140h23q50 80 138.5 120t203.5 40q188 0 292.5 -109t104.5 -307v-737h-391zM870 1239q-45 0 -90.5 15t-89.5 33t-85.5 33t-78.5 15q-54 0 -72 -98h-180q11 175 72 258.5 t180 83.5q38 0 81 -15t87 -33t87 -33t81 -15q29 0 46 25t26 73h182q-11 -167 -74 -254.5t-172 -87.5z" />
<glyph unicode="&#xf2;" horiz-adv-x="1305" d="M1217 569q0 -278 -149.5 -433.5t-418.5 -155.5q-258 0 -410.5 159t-152.5 430q0 277 149.5 430.5t419.5 153.5q167 0 295 -71t197.5 -203.5t69.5 -309.5zM483 569q0 -146 39 -222.5t131 -76.5q91 0 128.5 76.5t37.5 222.5q0 145 -38 219t-130 74q-90 0 -129 -73.5 t-39 -219.5zM607 1241q-69 44 -203.5 138.5t-228.5 168.5v21h430q52 -70 203 -233l59 -66v-29h-260z" />
<glyph unicode="&#xf3;" horiz-adv-x="1305" d="M1217 569q0 -278 -149.5 -433.5t-418.5 -155.5q-258 0 -410.5 159t-152.5 430q0 277 149.5 430.5t419.5 153.5q167 0 295 -71t197.5 -203.5t69.5 -309.5zM483 569q0 -146 39 -222.5t131 -76.5q91 0 128.5 76.5t37.5 222.5q0 145 -38 219t-130 74q-90 0 -129 -73.5 t-39 -219.5zM416 1241v29q154 165 195.5 213t68.5 86h428v-21q-80 -64 -220 -163t-212 -144h-260z" />
<glyph unicode="&#xf4;" horiz-adv-x="1305" d="M1217 569q0 -278 -149.5 -433.5t-418.5 -155.5q-258 0 -410.5 159t-152.5 430q0 277 149.5 430.5t419.5 153.5q167 0 295 -71t197.5 -203.5t69.5 -309.5zM483 569q0 -146 39 -222.5t131 -76.5q91 0 128.5 76.5t37.5 222.5q0 145 -38 219t-130 74q-90 0 -129 -73.5 t-39 -219.5zM852 1241q-84 48 -201 150q-125 -107 -194 -150h-258v29q69 65 144.5 153t113.5 146h393q94 -137 256 -299v-29h-254z" />
<glyph unicode="&#xf5;" horiz-adv-x="1305" d="M1217 569q0 -278 -149.5 -433.5t-418.5 -155.5q-258 0 -410.5 159t-152.5 430q0 277 149.5 430.5t419.5 153.5q167 0 295 -71t197.5 -203.5t69.5 -309.5zM483 569q0 -146 39 -222.5t131 -76.5q91 0 128.5 76.5t37.5 222.5q0 145 -38 219t-130 74q-90 0 -129 -73.5 t-39 -219.5zM827 1239q-45 0 -90.5 15t-89.5 33t-85.5 33t-78.5 15q-54 0 -72 -98h-180q11 175 72 258.5t180 83.5q38 0 81 -15t87 -33t87 -33t81 -15q29 0 46 25t26 73h182q-11 -167 -74 -254.5t-172 -87.5z" />
<glyph unicode="&#xf6;" horiz-adv-x="1305" d="M1217 569q0 -278 -149.5 -433.5t-418.5 -155.5q-258 0 -410.5 159t-152.5 430q0 277 149.5 430.5t419.5 153.5q167 0 295 -71t197.5 -203.5t69.5 -309.5zM483 569q0 -146 39 -222.5t131 -76.5q91 0 128.5 76.5t37.5 222.5q0 145 -38 219t-130 74q-90 0 -129 -73.5 t-39 -219.5zM239 1413q0 75 46 116.5t124 41.5q79 0 125.5 -42.5t46.5 -115.5q0 -71 -46.5 -113.5t-125.5 -42.5q-78 0 -124 41t-46 115zM718 1413q0 75 46 116.5t126 41.5t126.5 -43t46.5 -115q0 -71 -46.5 -113.5t-126.5 -42.5q-81 0 -126.5 41.5t-45.5 114.5z" />
<glyph unicode="&#xf7;" horiz-adv-x="1159" d="M72 588v268h1013v-268h-1013zM422 332q0 82 39.5 126t116.5 44q75 0 116 -43.5t41 -126.5q0 -80 -43.5 -125t-113.5 -45q-71 0 -113.5 44t-42.5 126zM422 1112q0 82 39.5 126t116.5 44q75 0 116 -43.5t41 -126.5q0 -80 -43.5 -125t-113.5 -45q-71 0 -113.5 44t-42.5 126z " />
<glyph unicode="&#xf8;" horiz-adv-x="1362" d="M274 113q-188 158 -188 456q0 277 157 430.5t441 153.5q125 0 234 -39l71 111l168 -105l-67 -104q184 -158 184 -447q0 -280 -156.5 -434.5t-439.5 -154.5q-125 0 -229 34l-84 -131l-170 107zM461 569q0 -99 12 -147l289 448q-36 13 -82 13q-114 0 -166.5 -74t-52.5 -240 zM899 569q0 86 -10 131l-283 -442q27 -8 76 -8q114 0 165.5 73t51.5 246z" />
<glyph unicode="&#xf9;" horiz-adv-x="1372" d="M942 0l-49 141h-23q-49 -78 -136.5 -119.5t-205.5 -41.5q-187 0 -291 108.5t-104 306.5v738h391v-619q0 -111 31.5 -168t103.5 -57q101 0 144 79.5t43 268.5v496h391v-1133h-295zM607 1241q-69 44 -203.5 138.5t-228.5 168.5v21h430q52 -70 203 -233l59 -66v-29h-260z " />
<glyph unicode="&#xfa;" horiz-adv-x="1372" d="M942 0l-49 141h-23q-49 -78 -136.5 -119.5t-205.5 -41.5q-187 0 -291 108.5t-104 306.5v738h391v-619q0 -111 31.5 -168t103.5 -57q101 0 144 79.5t43 268.5v496h391v-1133h-295zM471 1241v29q154 165 195.5 213t68.5 86h428v-21q-80 -64 -220 -163t-212 -144h-260z" />
<glyph unicode="&#xfb;" horiz-adv-x="1372" d="M942 0l-49 141h-23q-49 -78 -136.5 -119.5t-205.5 -41.5q-187 0 -291 108.5t-104 306.5v738h391v-619q0 -111 31.5 -168t103.5 -57q101 0 144 79.5t43 268.5v496h391v-1133h-295zM883 1241q-84 48 -201 150q-125 -107 -194 -150h-258v29q69 65 144.5 153t113.5 146h393 q94 -137 256 -299v-29h-254z" />
<glyph unicode="&#xfc;" horiz-adv-x="1372" d="M942 0l-49 141h-23q-49 -78 -136.5 -119.5t-205.5 -41.5q-187 0 -291 108.5t-104 306.5v738h391v-619q0 -111 31.5 -168t103.5 -57q101 0 144 79.5t43 268.5v496h391v-1133h-295zM272 1413q0 75 46 116.5t124 41.5q79 0 125.5 -42.5t46.5 -115.5q0 -71 -46.5 -113.5 t-125.5 -42.5q-78 0 -124 41t-46 115zM751 1413q0 75 46 116.5t126 41.5t126.5 -43t46.5 -115q0 -71 -46.5 -113.5t-126.5 -42.5q-81 0 -126.5 41.5t-45.5 114.5z" />
<glyph unicode="&#xfd;" horiz-adv-x="1249" d="M-2 1133h412l192 -650q14 -51 19 -123h8q8 69 24 121l197 652h399l-448 -1205q-86 -230 -211.5 -325t-327.5 -95q-78 0 -160 17v307q53 -12 121 -12q52 0 91 20t68 56.5t62 119.5zM401 1241v29q154 165 195.5 213t68.5 86h428v-21q-80 -64 -220 -163t-212 -144h-260z" />
<glyph unicode="&#xfe;" horiz-adv-x="1317" d="M526 987q43 78 122 122t179 44q185 0 293.5 -154t108.5 -430q0 -271 -111.5 -430t-304.5 -159q-173 0 -287 129h-14l7 -60l7 -92v-449h-391v2048h391v-344q0 -106 -18 -225h18zM682 846q-85 0 -119 -61.5t-37 -184.5v-29q0 -146 39 -211t123 -65q80 0 111.5 70.5 t31.5 207.5q0 134 -33 203.5t-116 69.5z" />
<glyph unicode="&#xff;" horiz-adv-x="1249" d="M-2 1133h412l192 -650q14 -51 19 -123h8q8 69 24 121l197 652h399l-448 -1205q-86 -230 -211.5 -325t-327.5 -95q-78 0 -160 17v307q53 -12 121 -12q52 0 91 20t68 56.5t62 119.5zM216 1413q0 75 46 116.5t124 41.5q79 0 125.5 -42.5t46.5 -115.5q0 -71 -46.5 -113.5 t-125.5 -42.5q-78 0 -124 41t-46 115zM695 1413q0 75 46 116.5t126 41.5t126.5 -43t46.5 -115q0 -71 -46.5 -113.5t-126.5 -42.5q-81 0 -126.5 41.5t-45.5 114.5z" />
<glyph unicode="&#x100;" horiz-adv-x="1487" d="M1055 0l-72 274h-475l-74 -274h-434l477 1468h527l483 -1468h-432zM901 598l-63 240q-22 80 -53.5 207t-41.5 182q-9 -51 -35.5 -168t-117.5 -461h311zM373 1815h727v-236h-727v236z" />
<glyph unicode="&#x101;" d="M874 0l-75 150h-8q-79 -98 -161 -134t-212 -36q-160 0 -252 96t-92 270q0 181 126 269.5t365 99.5l189 6v16q0 140 -138 140q-124 0 -315 -84l-113 258q198 102 500 102q218 0 337.5 -108t119.5 -302v-743h-271zM584 256q71 0 121.5 45t50.5 117v88l-90 -4 q-193 -7 -193 -142q0 -104 111 -104zM287 1477h727v-236h-727v236z" />
<glyph unicode="&#x102;" horiz-adv-x="1487" d="M1055 0l-72 274h-475l-74 -274h-434l477 1468h527l483 -1468h-432zM901 598l-63 240q-22 80 -53.5 207t-41.5 182q-9 -51 -35.5 -168t-117.5 -461h311zM1149 1950q-10 -171 -118 -271t-290 -100q-187 0 -289.5 95t-111.5 276h211q20 -78 57.5 -104.5t132.5 -26.5 q81 0 125.5 31.5t63.5 99.5h219z" />
<glyph unicode="&#x103;" d="M874 0l-75 150h-8q-79 -98 -161 -134t-212 -36q-160 0 -252 96t-92 270q0 181 126 269.5t365 99.5l189 6v16q0 140 -138 140q-124 0 -315 -84l-113 258q198 102 500 102q218 0 337.5 -108t119.5 -302v-743h-271zM584 256q71 0 121.5 45t50.5 117v88l-90 -4 q-193 -7 -193 -142q0 -104 111 -104zM1065 1612q-10 -171 -118 -271t-290 -100q-187 0 -289.5 95t-111.5 276h211q20 -78 57.5 -104.5t132.5 -26.5q81 0 125.5 31.5t63.5 99.5h219z" />
<glyph unicode="&#x104;" horiz-adv-x="1487" d="M1055 0l-72 274h-475l-74 -274h-434l477 1468h527l483 -1468h-432zM901 598l-63 240q-22 80 -53.5 207t-41.5 182q-9 -51 -35.5 -168t-117.5 -461h311zM1137 -199q0 -67 78 -67q70 0 118 22v-221q-83 -27 -174 -27q-122 0 -199 64.5t-77 167.5q0 69 40 131.5t134 128.5 h213q-79 -74 -106 -117t-27 -82z" />
<glyph unicode="&#x105;" d="M874 0l-75 150h-8q-79 -98 -161 -134t-212 -36q-160 0 -252 96t-92 270q0 181 126 269.5t365 99.5l189 6v16q0 140 -138 140q-124 0 -315 -84l-113 258q198 102 500 102q218 0 337.5 -108t119.5 -302v-743h-271zM584 256q71 0 121.5 45t50.5 117v88l-90 -4 q-193 -7 -193 -142q0 -104 111 -104zM955 -199q0 -67 78 -67q70 0 118 22v-221q-83 -27 -174 -27q-122 0 -199 64.5t-77 167.5q0 69 40 131.5t134 128.5h213q-79 -74 -106 -117t-27 -82z" />
<glyph unicode="&#x106;" horiz-adv-x="1329" d="M809 1159q-141 0 -220 -115.5t-79 -318.5q0 -422 321 -422q97 0 188 27t183 65v-334q-183 -81 -414 -81q-331 0 -507.5 192t-176.5 555q0 227 85.5 399t246 264.5t377.5 92.5q237 0 453 -103l-121 -311q-81 38 -162 64t-174 26zM551 1579v29q154 165 195.5 213t68.5 86 h428v-21q-80 -64 -220 -163t-212 -144h-260z" />
<glyph unicode="&#x107;" horiz-adv-x="1104" d="M651 -20q-278 0 -421.5 150t-143.5 431q0 282 155 437t441 155q197 0 371 -86l-115 -289q-71 31 -131 49.5t-125 18.5q-95 0 -147 -74t-52 -209q0 -272 201 -272q172 0 330 100v-311q-151 -100 -363 -100zM422 1241v29q154 165 195.5 213t68.5 86h428v-21 q-80 -64 -220 -163t-212 -144h-260z" />
<glyph unicode="&#x108;" horiz-adv-x="1329" d="M809 1159q-141 0 -220 -115.5t-79 -318.5q0 -422 321 -422q97 0 188 27t183 65v-334q-183 -81 -414 -81q-331 0 -507.5 192t-176.5 555q0 227 85.5 399t246 264.5t377.5 92.5q237 0 453 -103l-121 -311q-81 38 -162 64t-174 26zM987 1579q-84 48 -201 150 q-125 -107 -194 -150h-258v29q69 65 144.5 153t113.5 146h393q94 -137 256 -299v-29h-254z" />
<glyph unicode="&#x109;" horiz-adv-x="1104" d="M651 -20q-278 0 -421.5 150t-143.5 431q0 282 155 437t441 155q197 0 371 -86l-115 -289q-71 31 -131 49.5t-125 18.5q-95 0 -147 -74t-52 -209q0 -272 201 -272q172 0 330 100v-311q-151 -100 -363 -100zM819 1241q-84 48 -201 150q-125 -107 -194 -150h-258v29 q69 65 144.5 153t113.5 146h393q94 -137 256 -299v-29h-254z" />
<glyph unicode="&#x10a;" horiz-adv-x="1329" d="M809 1159q-141 0 -220 -115.5t-79 -318.5q0 -422 321 -422q97 0 188 27t183 65v-334q-183 -81 -414 -81q-331 0 -507.5 192t-176.5 555q0 227 85.5 399t246 264.5t377.5 92.5q237 0 453 -103l-121 -311q-81 38 -162 64t-174 26zM561 1753q0 88 49 131t158 43t159 -44 t50 -130q0 -172 -209 -172q-207 0 -207 172z" />
<glyph unicode="&#x10b;" horiz-adv-x="1104" d="M651 -20q-278 0 -421.5 150t-143.5 431q0 282 155 437t441 155q197 0 371 -86l-115 -289q-71 31 -131 49.5t-125 18.5q-95 0 -147 -74t-52 -209q0 -272 201 -272q172 0 330 100v-311q-151 -100 -363 -100zM434 1415q0 88 49 131t158 43t159 -44t50 -130q0 -172 -209 -172 q-207 0 -207 172z" />
<glyph unicode="&#x10c;" horiz-adv-x="1329" d="M809 1159q-141 0 -220 -115.5t-79 -318.5q0 -422 321 -422q97 0 188 27t183 65v-334q-183 -81 -414 -81q-331 0 -507.5 192t-176.5 555q0 227 85.5 399t246 264.5t377.5 92.5q237 0 453 -103l-121 -311q-81 38 -162 64t-174 26zM1233 1907v-29q-66 -66 -139 -150 t-117 -149h-393q-39 60 -110.5 142.5t-147.5 156.5v29h258q69 -43 194 -150q117 102 201 150h254z" />
<glyph unicode="&#x10d;" horiz-adv-x="1104" d="M651 -20q-278 0 -421.5 150t-143.5 431q0 282 155 437t441 155q197 0 371 -86l-115 -289q-71 31 -131 49.5t-125 18.5q-95 0 -147 -74t-52 -209q0 -272 201 -272q172 0 330 100v-311q-151 -100 -363 -100zM1083 1569v-29q-66 -66 -139 -150t-117 -149h-393 q-39 60 -110.5 142.5t-147.5 156.5v29h258q69 -43 194 -150q117 102 201 150h254z" />
<glyph unicode="&#x10e;" horiz-adv-x="1503" d="M1399 762q0 -366 -201.5 -564t-566.5 -198h-473v1462h506q352 0 543.5 -180t191.5 -520zM989 748q0 201 -79.5 298t-241.5 97h-115v-819h88q180 0 264 104.5t84 319.5zM1182 1907v-29q-66 -66 -139 -150t-117 -149h-393q-39 60 -110.5 142.5t-147.5 156.5v29h258 q69 -43 194 -150q117 102 201 150h254z" />
<glyph unicode="&#x10f;" horiz-adv-x="1317" d="M487 -20q-121 0 -211.5 69t-140 203t-49.5 313q0 276 111 432t305 156q95 0 166.5 -38t130.5 -128h8q-19 133 -19 266v303h394v-1556h-295l-84 143h-15q-101 -163 -301 -163zM647 289q94 0 132.5 59t41.5 182v31q0 150 -43 213.5t-135 63.5q-77 0 -119.5 -72.5 t-42.5 -206.5q0 -132 43 -201t123 -69zM1266 1257q43 185 57 299h355v-22q-144 -249 -179 -305h-233v28z" />
<glyph unicode="&#x110;" horiz-adv-x="1503" d="M1399 762q0 -366 -201.5 -564t-566.5 -198h-473v563h-127v320h127v579h506q352 0 543.5 -180t191.5 -520zM989 748q0 201 -79.5 298t-241.5 97h-115v-260h211v-320h-211v-239h88q180 0 264 104.5t84 319.5z" />
<glyph unicode="&#x111;" horiz-adv-x="1358" d="M471 -20q-178 0 -281.5 144.5t-103.5 389.5q0 256 111 397.5t311 141.5q197 0 303 -164h8q-12 47 -21.5 121t-9.5 147v10h-231v242h231v147h394v-147h155v-242h-155v-1167h-320l-88 143h-14q-105 -163 -289 -163zM668 289q84 0 117 49t36 149v25q0 109 -43.5 167 t-115.5 58q-144 0 -144 -227q0 -103 41 -162t109 -59z" />
<glyph unicode="&#x112;" horiz-adv-x="1124" d="M1026 0h-868v1462h868v-317h-473v-230h438v-317h-438v-276h473v-322zM227 1815h727v-236h-727v236z" />
<glyph unicode="&#x113;" horiz-adv-x="1266" d="M682 -20q-283 0 -439.5 150.5t-156.5 428.5q0 287 145 440.5t414 153.5q256 0 395.5 -133.5t139.5 -384.5v-174h-699q4 -95 69.5 -149t178.5 -54q103 0 189.5 19.5t187.5 66.5v-281q-92 -47 -190 -65t-234 -18zM659 887q-69 0 -115.5 -43.5t-54.5 -136.5h336 q-2 82 -46.5 131t-119.5 49zM262 1477h727v-236h-727v236z" />
<glyph unicode="&#x114;" horiz-adv-x="1124" d="M1026 0h-868v1462h868v-317h-473v-230h438v-317h-438v-276h473v-322zM978 1950q-10 -171 -118 -271t-290 -100q-187 0 -289.5 95t-111.5 276h211q20 -78 57.5 -104.5t132.5 -26.5q81 0 125.5 31.5t63.5 99.5h219z" />
<glyph unicode="&#x115;" horiz-adv-x="1266" d="M682 -20q-283 0 -439.5 150.5t-156.5 428.5q0 287 145 440.5t414 153.5q256 0 395.5 -133.5t139.5 -384.5v-174h-699q4 -95 69.5 -149t178.5 -54q103 0 189.5 19.5t187.5 66.5v-281q-92 -47 -190 -65t-234 -18zM659 887q-69 0 -115.5 -43.5t-54.5 -136.5h336 q-2 82 -46.5 131t-119.5 49zM1049 1612q-10 -171 -118 -271t-290 -100q-187 0 -289.5 95t-111.5 276h211q20 -78 57.5 -104.5t132.5 -26.5q81 0 125.5 31.5t63.5 99.5h219z" />
<glyph unicode="&#x116;" horiz-adv-x="1124" d="M1026 0h-868v1462h868v-317h-473v-230h438v-317h-438v-276h473v-322zM387 1724q0 88 49 131t158 43t159 -44t50 -130q0 -172 -209 -172q-207 0 -207 172z" />
<glyph unicode="&#x117;" horiz-adv-x="1266" d="M682 -20q-283 0 -439.5 150.5t-156.5 428.5q0 287 145 440.5t414 153.5q256 0 395.5 -133.5t139.5 -384.5v-174h-699q4 -95 69.5 -149t178.5 -54q103 0 189.5 19.5t187.5 66.5v-281q-92 -47 -190 -65t-234 -18zM659 887q-69 0 -115.5 -43.5t-54.5 -136.5h336 q-2 82 -46.5 131t-119.5 49zM455 1415q0 88 49 131t158 43t159 -44t50 -130q0 -172 -209 -172q-207 0 -207 172z" />
<glyph unicode="&#x118;" horiz-adv-x="1124" d="M1026 0h-868v1462h868v-317h-473v-230h438v-317h-438v-276h473v-322zM758 -199q0 -67 78 -67q70 0 118 22v-221q-83 -27 -174 -27q-122 0 -199 64.5t-77 167.5q0 69 40 131.5t134 128.5h213q-79 -74 -106 -117t-27 -82z" />
<glyph unicode="&#x119;" horiz-adv-x="1266" d="M682 -20q-283 0 -439.5 150.5t-156.5 428.5q0 287 145 440.5t414 153.5q256 0 395.5 -133.5t139.5 -384.5v-174h-699q4 -95 69.5 -149t178.5 -54q103 0 189.5 19.5t187.5 66.5v-281q-92 -47 -190 -65t-234 -18zM659 887q-69 0 -115.5 -43.5t-54.5 -136.5h336 q-2 82 -46.5 131t-119.5 49zM785 -199q0 -67 78 -67q70 0 118 22v-221q-83 -27 -174 -27q-122 0 -199 64.5t-77 167.5q0 69 40 131.5t134 128.5h213q-79 -74 -106 -117t-27 -82z" />
<glyph unicode="&#x11a;" horiz-adv-x="1124" d="M1026 0h-868v1462h868v-317h-473v-230h438v-317h-438v-276h473v-322zM1043 1907v-29q-66 -66 -139 -150t-117 -149h-393q-39 60 -110.5 142.5t-147.5 156.5v29h258q69 -43 194 -150q117 102 201 150h254z" />
<glyph unicode="&#x11b;" horiz-adv-x="1266" d="M682 -20q-283 0 -439.5 150.5t-156.5 428.5q0 287 145 440.5t414 153.5q256 0 395.5 -133.5t139.5 -384.5v-174h-699q4 -95 69.5 -149t178.5 -54q103 0 189.5 19.5t187.5 66.5v-281q-92 -47 -190 -65t-234 -18zM659 887q-69 0 -115.5 -43.5t-54.5 -136.5h336 q-2 82 -46.5 131t-119.5 49zM1100 1569v-29q-66 -66 -139 -150t-117 -149h-393q-39 60 -110.5 142.5t-147.5 156.5v29h258q69 -43 194 -150q117 102 201 150h254z" />
<glyph unicode="&#x11c;" horiz-adv-x="1516" d="M745 856h631v-788q-257 -88 -565 -88q-338 0 -522.5 196t-184.5 559q0 354 202 551t566 197q138 0 260.5 -26t213.5 -66l-125 -310q-158 78 -347 78q-173 0 -267.5 -112.5t-94.5 -321.5q0 -205 85.5 -312.5t246.5 -107.5q88 0 162 17v229h-261v305zM973 1579 q-84 48 -201 150q-125 -107 -194 -150h-258v29q69 65 144.5 153t113.5 146h393q94 -137 256 -299v-29h-254z" />
<glyph unicode="&#x11d;" horiz-adv-x="1241" d="M1204 1133v-189l-155 -57q32 -58 32 -135q0 -183 -128.5 -284t-383.5 -101q-63 0 -100 8q-14 -26 -14 -49q0 -29 47 -44.5t123 -15.5h188q381 0 381 -321q0 -207 -176.5 -322t-495.5 -115q-241 0 -371.5 80.5t-130.5 231.5q0 203 252 262q-52 22 -90.5 71t-38.5 97 q0 53 29 93.5t121 96.5q-88 39 -138.5 122t-50.5 202q0 185 126 287t360 102q31 0 107 -7t112 -13h395zM350 -141q0 -48 52 -77.5t139 -29.5q142 0 227.5 35.5t85.5 91.5q0 45 -52 63.5t-149 18.5h-153q-63 0 -106.5 -29.5t-43.5 -72.5zM473 762q0 -174 121 -174 q56 0 86.5 43t30.5 129q0 176 -117 176q-121 0 -121 -174zM817 1241q-84 48 -201 150q-125 -107 -194 -150h-258v29q69 65 144.5 153t113.5 146h393q94 -137 256 -299v-29h-254z" />
<glyph unicode="&#x11e;" horiz-adv-x="1516" d="M745 856h631v-788q-257 -88 -565 -88q-338 0 -522.5 196t-184.5 559q0 354 202 551t566 197q138 0 260.5 -26t213.5 -66l-125 -310q-158 78 -347 78q-173 0 -267.5 -112.5t-94.5 -321.5q0 -205 85.5 -312.5t246.5 -107.5q88 0 162 17v229h-261v305zM1176 1950 q-10 -171 -118 -271t-290 -100q-187 0 -289.5 95t-111.5 276h211q20 -78 57.5 -104.5t132.5 -26.5q81 0 125.5 31.5t63.5 99.5h219z" />
<glyph unicode="&#x11f;" horiz-adv-x="1241" d="M1204 1133v-189l-155 -57q32 -58 32 -135q0 -183 -128.5 -284t-383.5 -101q-63 0 -100 8q-14 -26 -14 -49q0 -29 47 -44.5t123 -15.5h188q381 0 381 -321q0 -207 -176.5 -322t-495.5 -115q-241 0 -371.5 80.5t-130.5 231.5q0 203 252 262q-52 22 -90.5 71t-38.5 97 q0 53 29 93.5t121 96.5q-88 39 -138.5 122t-50.5 202q0 185 126 287t360 102q31 0 107 -7t112 -13h395zM350 -141q0 -48 52 -77.5t139 -29.5q142 0 227.5 35.5t85.5 91.5q0 45 -52 63.5t-149 18.5h-153q-63 0 -106.5 -29.5t-43.5 -72.5zM473 762q0 -174 121 -174 q56 0 86.5 43t30.5 129q0 176 -117 176q-121 0 -121 -174zM1030 1612q-10 -171 -118 -271t-290 -100q-187 0 -289.5 95t-111.5 276h211q20 -78 57.5 -104.5t132.5 -26.5q81 0 125.5 31.5t63.5 99.5h219z" />
<glyph unicode="&#x120;" horiz-adv-x="1516" d="M745 856h631v-788q-257 -88 -565 -88q-338 0 -522.5 196t-184.5 559q0 354 202 551t566 197q138 0 260.5 -26t213.5 -66l-125 -310q-158 78 -347 78q-173 0 -267.5 -112.5t-94.5 -321.5q0 -205 85.5 -312.5t246.5 -107.5q88 0 162 17v229h-261v305zM571 1753q0 88 49 131 t158 43t159 -44t50 -130q0 -172 -209 -172q-207 0 -207 172z" />
<glyph unicode="&#x121;" horiz-adv-x="1241" d="M1204 1133v-189l-155 -57q32 -58 32 -135q0 -183 -128.5 -284t-383.5 -101q-63 0 -100 8q-14 -26 -14 -49q0 -29 47 -44.5t123 -15.5h188q381 0 381 -321q0 -207 -176.5 -322t-495.5 -115q-241 0 -371.5 80.5t-130.5 231.5q0 203 252 262q-52 22 -90.5 71t-38.5 97 q0 53 29 93.5t121 96.5q-88 39 -138.5 122t-50.5 202q0 185 126 287t360 102q31 0 107 -7t112 -13h395zM350 -141q0 -48 52 -77.5t139 -29.5q142 0 227.5 35.5t85.5 91.5q0 45 -52 63.5t-149 18.5h-153q-63 0 -106.5 -29.5t-43.5 -72.5zM473 762q0 -174 121 -174 q56 0 86.5 43t30.5 129q0 176 -117 176q-121 0 -121 -174zM401 1415q0 88 49 131t158 43t159 -44t50 -130q0 -172 -209 -172q-207 0 -207 172z" />
<glyph unicode="&#x122;" horiz-adv-x="1516" d="M745 856h631v-788q-257 -88 -565 -88q-338 0 -522.5 196t-184.5 559q0 354 202 551t566 197q138 0 260.5 -26t213.5 -66l-125 -310q-158 78 -347 78q-173 0 -267.5 -112.5t-94.5 -321.5q0 -205 85.5 -312.5t246.5 -107.5q88 0 162 17v229h-261v305zM596 -424 q16 56 30.5 146t16.5 153h355v-22q-71 -165 -168 -306h-234v29z" />
<glyph unicode="&#x123;" horiz-adv-x="1241" d="M1204 1133v-189l-155 -57q32 -58 32 -135q0 -183 -128.5 -284t-383.5 -101q-63 0 -100 8q-14 -26 -14 -49q0 -29 47 -44.5t123 -15.5h188q381 0 381 -321q0 -207 -176.5 -322t-495.5 -115q-241 0 -371.5 80.5t-130.5 231.5q0 203 252 262q-52 22 -90.5 71t-38.5 97 q0 53 29 93.5t121 96.5q-88 39 -138.5 122t-50.5 202q0 185 126 287t360 102q31 0 107 -7t112 -13h395zM350 -141q0 -48 52 -77.5t139 -29.5q142 0 227.5 35.5t85.5 91.5q0 45 -52 63.5t-149 18.5h-153q-63 0 -106.5 -29.5t-43.5 -72.5zM473 762q0 -174 121 -174 q56 0 86.5 43t30.5 129q0 176 -117 176q-121 0 -121 -174zM821 1540q-35 -184 -45 -299h-357v23l170 305h232v-29z" />
<glyph unicode="&#x124;" horiz-adv-x="1569" d="M1411 0h-397v596h-459v-596h-397v1462h397v-542h459v542h397v-1462zM979 1579q-84 48 -201 150q-125 -107 -194 -150h-258v29q69 65 144.5 153t113.5 146h393q94 -137 256 -299v-29h-254z" />
<glyph unicode="&#x125;" horiz-adv-x="1372" d="M848 0v618q0 228 -135 228q-96 0 -141.5 -80.5t-45.5 -267.5v-498h-391v1556h391v-221q0 -150 -16 -342h18q56 88 133 124t179 36q190 0 295.5 -109.5t105.5 -306.5v-737h-393zM883 1634q-84 48 -201 150q-125 -107 -194 -150h-258v29q69 65 144.5 153t113.5 146h393 q94 -137 256 -299v-29h-254z" />
<glyph unicode="&#x126;" horiz-adv-x="1602" d="M174 1300v162h395v-162h461v162h397v-162h175v-233h-175v-1067h-397v596h-461v-596h-395v1067h-174v233h174zM1030 920v147h-461v-147h461z" />
<glyph unicode="&#x127;" horiz-adv-x="1393" d="M156 1167h-156v242h156v147h391v-147h233v-242h-235v-41q0 -37 -5 -114t-10 -119h23q55 86 130.5 123t178.5 37q189 0 294.5 -109t105.5 -305v-639h-394v518q0 227 -135 227q-96 0 -141 -81t-45 -269v-395h-391v1167z" />
<glyph unicode="&#x128;" horiz-adv-x="713" d="M158 0v1462h397v-1462h-397zM533 1577q-45 0 -90.5 15t-89.5 33t-85.5 33t-78.5 15q-54 0 -72 -98h-180q11 175 72 258.5t180 83.5q38 0 81 -15t87 -33t87 -33t81 -15q29 0 46 25t26 73h182q-11 -167 -74 -254.5t-172 -87.5z" />
<glyph unicode="&#x129;" horiz-adv-x="666" d="M528 0h-391v1133h391v-1133zM511 1239q-45 0 -90.5 15t-89.5 33t-85.5 33t-78.5 15q-54 0 -72 -98h-180q11 175 72 258.5t180 83.5q38 0 81 -15t87 -33t87 -33t81 -15q29 0 46 25t26 73h182q-11 -167 -74 -254.5t-172 -87.5z" />
<glyph unicode="&#x12a;" horiz-adv-x="713" d="M158 0v1462h397v-1462h-397zM-3 1815h727v-236h-727v236z" />
<glyph unicode="&#x12b;" horiz-adv-x="666" d="M528 0h-391v1133h391v-1133zM-27 1477h727v-236h-727v236z" />
<glyph unicode="&#x12c;" horiz-adv-x="713" d="M158 0v1462h397v-1462h-397zM765 1950q-10 -171 -118 -271t-290 -100q-187 0 -289.5 95t-111.5 276h211q20 -78 57.5 -104.5t132.5 -26.5q81 0 125.5 31.5t63.5 99.5h219z" />
<glyph unicode="&#x12d;" horiz-adv-x="666" d="M528 0h-391v1133h391v-1133zM738 1612q-10 -171 -118 -271t-290 -100q-187 0 -289.5 95t-111.5 276h211q20 -78 57.5 -104.5t132.5 -26.5q81 0 125.5 31.5t63.5 99.5h219z" />
<glyph unicode="&#x12e;" horiz-adv-x="713" d="M158 0v1462h397v-1462h-397zM342 -199q0 -67 78 -67q70 0 118 22v-221q-83 -27 -174 -27q-122 0 -199 64.5t-77 167.5q0 69 40 131.5t134 128.5h213q-79 -74 -106 -117t-27 -82z" />
<glyph unicode="&#x12f;" horiz-adv-x="666" d="M528 0h-391v1133h391v-1133zM127 1415q0 88 49 131t158 43t159 -44t50 -130q0 -172 -209 -172q-207 0 -207 172zM348 -199q0 -67 78 -67q70 0 118 22v-221q-83 -27 -174 -27q-122 0 -199 64.5t-77 167.5q0 69 40 131.5t134 128.5h213q-79 -74 -106 -117t-27 -82z" />
<glyph unicode="&#x130;" horiz-adv-x="713" d="M158 0v1462h397v-1462h-397zM147 1753q0 88 49 131t158 43t159 -44t50 -130q0 -172 -209 -172q-207 0 -207 172z" />
<glyph unicode="&#x131;" horiz-adv-x="666" d="M528 0h-391v1133h391v-1133z" />
<glyph unicode="&#x132;" horiz-adv-x="1434" d="M158 0v1462h397v-1462h-397zM756 -459q-108 0 -205 21v307q32 -6 68 -13.5t78 -7.5q98 0 140 59t42 202v1353h397v-1319q0 -297 -130 -449.5t-390 -152.5z" />
<glyph unicode="&#x133;" horiz-adv-x="1294" d="M528 0h-391v1133h391v-1133zM127 1415q0 88 49 131t158 43t159 -44t50 -130q0 -172 -209 -172q-207 0 -207 172zM737 -492q-48 0 -110.5 7.5t-99.5 17.5v305q64 -18 120 -18q119 0 119 170v1143h391v-1225q0 -187 -109.5 -293.5t-310.5 -106.5zM756 1415q0 88 49 131 t158 43t159 -44t50 -130q0 -172 -209 -172q-207 0 -207 172z" />
<glyph unicode="&#x134;" horiz-adv-x="721" d="M43 -459q-108 0 -205 21v307q32 -6 68 -13.5t78 -7.5q98 0 140 59t42 202v1353h397v-1319q0 -297 -130 -449.5t-390 -152.5zM572 1579q-84 48 -201 150q-125 -107 -194 -150h-258v29q69 65 144.5 153t113.5 146h393q94 -137 256 -299v-29h-254z" />
<glyph unicode="&#x135;" horiz-adv-x="664" d="M106 -492q-48 0 -110.5 7.5t-99.5 17.5v305q64 -18 120 -18q119 0 119 170v1143h391v-1225q0 -187 -109.5 -293.5t-310.5 -106.5zM527 1241q-84 48 -201 150q-125 -107 -194 -150h-258v29q69 65 144.5 153t113.5 146h393q94 -137 256 -299v-29h-254z" />
<glyph unicode="&#x136;" horiz-adv-x="1407" d="M1407 0h-446l-289 559l-117 -70v-489h-397v1462h397v-635q30 59 121 187l307 448h432l-461 -655zM489 -424q16 56 30.5 146t16.5 153h355v-22q-71 -165 -168 -306h-234v29z" />
<glyph unicode="&#x137;" horiz-adv-x="1350" d="M514 637q71 113 121 176l254 320h436l-393 -482l418 -651h-447l-248 406l-127 -97v-309h-393v1556h393v-612q0 -157 -22 -307h8zM485 -424q16 56 30.5 146t16.5 153h355v-22q-71 -165 -168 -306h-234v29z" />
<glyph unicode="&#x138;" horiz-adv-x="1350" d="M926 637l424 -637h-441l-252 399l-129 -98v-301h-393v1133h393v-246q0 -117 -10 -244h8q19 26 49 73t72 101l246 316h438z" />
<glyph unicode="&#x139;" horiz-adv-x="1192" d="M158 0v1462h395v-1143h563v-319h-958zM268 1579v29q154 165 195.5 213t68.5 86h428v-21q-80 -64 -220 -163t-212 -144h-260z" />
<glyph unicode="&#x13a;" horiz-adv-x="662" d="M526 0h-391v1556h391v-1556zM111 1636v29q154 165 195.5 213t68.5 86h428v-21q-80 -64 -220 -163t-212 -144h-260z" />
<glyph unicode="&#x13b;" horiz-adv-x="1192" d="M158 0v1462h395v-1143h563v-319h-958zM409 -424q16 56 30.5 146t16.5 153h355v-22q-71 -165 -168 -306h-234v29z" />
<glyph unicode="&#x13c;" horiz-adv-x="662" d="M526 0h-391v1556h391v-1556zM113 -424q16 56 30.5 146t16.5 153h355v-22q-71 -165 -168 -306h-234v29z" />
<glyph unicode="&#x13d;" horiz-adv-x="1192" d="M158 0v1462h395v-1143h563v-319h-958zM729 1164q43 185 57 299h355v-22q-144 -249 -179 -305h-233v28z" />
<glyph unicode="&#x13e;" horiz-adv-x="662" d="M526 0h-391v1556h391v-1556zM610 1257q43 185 57 299h355v-22q-144 -249 -179 -305h-233v28z" />
<glyph unicode="&#x13f;" horiz-adv-x="1192" d="M158 0v1462h395v-1143h563v-319h-958zM735 763q0 88 49 131t158 43t159 -44t50 -130q0 -172 -209 -172q-207 0 -207 172z" />
<glyph unicode="&#x140;" horiz-adv-x="1055" d="M526 0h-391v1556h391v-1556zM649 703q0 88 49 131t158 43t159 -44t50 -130q0 -172 -209 -172q-207 0 -207 172z" />
<glyph unicode="&#x141;" horiz-adv-x="1247" d="M213 0v481l-102 -57l-142 248l244 145v645h395v-401l211 131l148 -244l-359 -223v-406h563v-319h-958z" />
<glyph unicode="&#x142;" horiz-adv-x="854" d="M625 971l114 69l146 -247l-260 -154v-639h-392v403l-124 -67l-140 248l264 151v821h392v-585z" />
<glyph unicode="&#x143;" horiz-adv-x="1708" d="M1550 0h-518l-534 1030h-9q19 -243 19 -371v-659h-350v1462h516l532 -1016h6q-14 221 -14 355v661h352v-1462zM641 1579v29q154 165 195.5 213t68.5 86h428v-21q-80 -64 -220 -163t-212 -144h-260z" />
<glyph unicode="&#x144;" horiz-adv-x="1372" d="M850 0v618q0 113 -32.5 170.5t-104.5 57.5q-99 0 -143 -79t-44 -271v-496h-391v1133h295l49 -140h23q50 80 138.5 120t203.5 40q188 0 292.5 -109t104.5 -307v-737h-391zM479 1241v29q154 165 195.5 213t68.5 86h428v-21q-80 -64 -220 -163t-212 -144h-260z" />
<glyph unicode="&#x145;" horiz-adv-x="1708" d="M1550 0h-518l-534 1030h-9q19 -243 19 -371v-659h-350v1462h516l532 -1016h6q-14 221 -14 355v661h352v-1462zM596 -424q16 56 30.5 146t16.5 153h355v-22q-71 -165 -168 -306h-234v29z" />
<glyph unicode="&#x146;" horiz-adv-x="1372" d="M850 0v618q0 113 -32.5 170.5t-104.5 57.5q-99 0 -143 -79t-44 -271v-496h-391v1133h295l49 -140h23q50 80 138.5 120t203.5 40q188 0 292.5 -109t104.5 -307v-737h-391zM459 -424q16 56 30.5 146t16.5 153h355v-22q-71 -165 -168 -306h-234v29z" />
<glyph unicode="&#x147;" horiz-adv-x="1708" d="M1550 0h-518l-534 1030h-9q19 -243 19 -371v-659h-350v1462h516l532 -1016h6q-14 221 -14 355v661h352v-1462zM1309 1907v-29q-66 -66 -139 -150t-117 -149h-393q-39 60 -110.5 142.5t-147.5 156.5v29h258q69 -43 194 -150q117 102 201 150h254z" />
<glyph unicode="&#x148;" horiz-adv-x="1372" d="M850 0v618q0 113 -32.5 170.5t-104.5 57.5q-99 0 -143 -79t-44 -271v-496h-391v1133h295l49 -140h23q50 80 138.5 120t203.5 40q188 0 292.5 -109t104.5 -307v-737h-391zM1145 1569v-29q-66 -66 -139 -150t-117 -149h-393q-39 60 -110.5 142.5t-147.5 156.5v29h258 q69 -43 194 -150q117 102 201 150h254z" />
<glyph unicode="&#x149;" horiz-adv-x="1706" d="M1184 0v618q0 113 -32.5 170.5t-104.5 57.5q-99 0 -143 -79t-44 -271v-496h-391v1133h295l49 -140h23q50 80 138.5 120t203.5 40q188 0 292.5 -109t104.5 -307v-737h-391zM441 1460l15 -22q-92 -366 -177 -561h-278q68 317 98 583h342z" />
<glyph unicode="&#x14a;" horiz-adv-x="1708" d="M1028 -489q-128 0 -223 20v307q38 -6 79.5 -13t92.5 -7q119 0 176.5 45.5t65.5 136.5l-721 1030h-9q19 -190 19 -416v-614h-350v1462h475l573 -809h8q-16 232 -16 422v387h352v-1470q0 -225 -140 -353t-382 -128z" />
<glyph unicode="&#x14b;" horiz-adv-x="1372" d="M829 -492q-45 0 -106 7.5t-105 17.5v305q68 -18 117 -18q113 0 113 170v665q0 94 -35 142.5t-100 48.5q-99 0 -143 -79t-44 -271v-496h-391v1133h295l49 -140h25q50 79 139.5 119.5t202.5 40.5q186 0 290.5 -110t104.5 -306v-829q0 -188 -108 -294t-304 -106z" />
<glyph unicode="&#x14c;" horiz-adv-x="1632" d="M1526 733q0 -369 -181 -561t-530 -192q-344 0 -527.5 193t-183.5 562q0 365 182.5 557.5t530.5 192.5q349 0 529 -191t180 -561zM520 733q0 -424 295 -424q150 0 222.5 103t72.5 321q0 219 -73.5 323.5t-219.5 104.5q-297 0 -297 -428zM453 1815h727v-236h-727v236z" />
<glyph unicode="&#x14d;" horiz-adv-x="1305" d="M1217 569q0 -278 -149.5 -433.5t-418.5 -155.5q-258 0 -410.5 159t-152.5 430q0 277 149.5 430.5t419.5 153.5q167 0 295 -71t197.5 -203.5t69.5 -309.5zM483 569q0 -146 39 -222.5t131 -76.5q91 0 128.5 76.5t37.5 222.5q0 145 -38 219t-130 74q-90 0 -129 -73.5 t-39 -219.5zM287 1477h727v-236h-727v236z" />
<glyph unicode="&#x14e;" horiz-adv-x="1632" d="M1526 733q0 -369 -181 -561t-530 -192q-344 0 -527.5 193t-183.5 562q0 365 182.5 557.5t530.5 192.5q349 0 529 -191t180 -561zM520 733q0 -424 295 -424q150 0 222.5 103t72.5 321q0 219 -73.5 323.5t-219.5 104.5q-297 0 -297 -428zM1225 1950q-10 -171 -118 -271 t-290 -100q-187 0 -289.5 95t-111.5 276h211q20 -78 57.5 -104.5t132.5 -26.5q81 0 125.5 31.5t63.5 99.5h219z" />
<glyph unicode="&#x14f;" horiz-adv-x="1305" d="M1217 569q0 -278 -149.5 -433.5t-418.5 -155.5q-258 0 -410.5 159t-152.5 430q0 277 149.5 430.5t419.5 153.5q167 0 295 -71t197.5 -203.5t69.5 -309.5zM483 569q0 -146 39 -222.5t131 -76.5q91 0 128.5 76.5t37.5 222.5q0 145 -38 219t-130 74q-90 0 -129 -73.5 t-39 -219.5zM1055 1612q-10 -171 -118 -271t-290 -100q-187 0 -289.5 95t-111.5 276h211q20 -78 57.5 -104.5t132.5 -26.5q81 0 125.5 31.5t63.5 99.5h219z" />
<glyph unicode="&#x150;" horiz-adv-x="1632" d="M1526 733q0 -369 -181 -561t-530 -192q-344 0 -527.5 193t-183.5 562q0 365 182.5 557.5t530.5 192.5q349 0 529 -191t180 -561zM520 733q0 -424 295 -424q150 0 222.5 103t72.5 321q0 219 -73.5 323.5t-219.5 104.5q-297 0 -297 -428zM428 1579v29l49 67 q116 158 158 232h370v-21q-24 -39 -127.5 -123.5t-246.5 -183.5h-203zM891 1579v29l49 67q116 155 158 232h372v-21q-26 -43 -140.5 -134t-236.5 -173h-202z" />
<glyph unicode="&#x151;" horiz-adv-x="1305" d="M1217 569q0 -278 -149.5 -433.5t-418.5 -155.5q-258 0 -410.5 159t-152.5 430q0 277 149.5 430.5t419.5 153.5q167 0 295 -71t197.5 -203.5t69.5 -309.5zM483 569q0 -146 39 -222.5t131 -76.5q91 0 128.5 76.5t37.5 222.5q0 145 -38 219t-130 74q-90 0 -129 -73.5 t-39 -219.5zM240 1241v29l49 67q116 158 158 232h370v-21q-24 -39 -127.5 -123.5t-246.5 -183.5h-203zM703 1241v29l49 67q116 155 158 232h372v-21q-26 -43 -140.5 -134t-236.5 -173h-202z" />
<glyph unicode="&#x152;" horiz-adv-x="1960" d="M1862 0h-844q-34 -8 -110.5 -14t-133.5 -6q-319 0 -494.5 200t-175.5 555q0 359 175 554.5t497 195.5q67 0 143.5 -7t106.5 -16h836v-317h-473v-230h436v-317h-436v-276h473v-322zM778 1161q-125 0 -191.5 -109.5t-66.5 -318.5q0 -205 64.5 -314.5t191.5 -109.5 q141 0 217 43v760q-34 23 -93 36t-122 13z" />
<glyph unicode="&#x153;" horiz-adv-x="2007" d="M1434 -20q-238 0 -383 137q-151 -137 -402 -137q-258 0 -410.5 159t-152.5 430q0 277 149.5 430.5t419.5 153.5q226 0 375 -127q155 127 400 127q227 0 359 -136t132 -384v-172h-696q4 -90 74 -146.5t186 -56.5q194 0 364 86v-281q-92 -47 -187 -65t-228 -18zM485 569 q0 -146 38 -222.5t130 -76.5q91 0 128.5 76.5t37.5 222.5q0 145 -38 219t-130 74q-89 0 -127.5 -74t-38.5 -219zM1407 887q-162 0 -176 -180h340q-2 82 -48 131t-116 49z" />
<glyph unicode="&#x154;" horiz-adv-x="1386" d="M553 532v-532h-395v1462h479q596 0 596 -432q0 -254 -248 -393l426 -637h-448l-310 532h-100zM553 829h74q207 0 207 183q0 151 -203 151h-78v-334zM436 1579v29q154 165 195.5 213t68.5 86h428v-21q-80 -64 -220 -163t-212 -144h-260z" />
<glyph unicode="&#x155;" horiz-adv-x="961" d="M819 1153q51 0 97 -8l22 -4l-35 -369q-48 12 -133 12q-128 0 -186 -58.5t-58 -168.5v-557h-391v1133h291l61 -181h19q49 90 136.5 145.5t176.5 55.5zM311 1241v29q154 165 195.5 213t68.5 86h428v-21q-80 -64 -220 -163t-212 -144h-260z" />
<glyph unicode="&#x156;" horiz-adv-x="1386" d="M553 532v-532h-395v1462h479q596 0 596 -432q0 -254 -248 -393l426 -637h-448l-310 532h-100zM553 829h74q207 0 207 183q0 151 -203 151h-78v-334zM536 -424q16 56 30.5 146t16.5 153h355v-22q-71 -165 -168 -306h-234v29z" />
<glyph unicode="&#x157;" horiz-adv-x="961" d="M819 1153q51 0 97 -8l22 -4l-35 -369q-48 12 -133 12q-128 0 -186 -58.5t-58 -168.5v-557h-391v1133h291l61 -181h19q49 90 136.5 145.5t176.5 55.5zM109 -424q16 56 30.5 146t16.5 153h355v-22q-71 -165 -168 -306h-234v29z" />
<glyph unicode="&#x158;" horiz-adv-x="1386" d="M553 532v-532h-395v1462h479q596 0 596 -432q0 -254 -248 -393l426 -637h-448l-310 532h-100zM553 829h74q207 0 207 183q0 151 -203 151h-78v-334zM1132 1907v-29q-66 -66 -139 -150t-117 -149h-393q-39 60 -110.5 142.5t-147.5 156.5v29h258q69 -43 194 -150 q117 102 201 150h254z" />
<glyph unicode="&#x159;" horiz-adv-x="961" d="M819 1153q51 0 97 -8l22 -4l-35 -369q-48 12 -133 12q-128 0 -186 -58.5t-58 -168.5v-557h-391v1133h291l61 -181h19q49 90 136.5 145.5t176.5 55.5zM998 1569v-29q-66 -66 -139 -150t-117 -149h-393q-39 60 -110.5 142.5t-147.5 156.5v29h258q69 -43 194 -150 q117 102 201 150h254z" />
<glyph unicode="&#x15a;" horiz-adv-x="1182" d="M1114 444q0 -136 -69 -241.5t-199 -164t-305 -58.5q-146 0 -245 20.5t-206 71.5v352q113 -58 235 -90.5t224 -32.5q88 0 129 30.5t41 78.5q0 30 -16.5 52.5t-53 45.5t-194.5 94q-143 65 -214.5 126t-106 140t-34.5 187q0 202 147 315t404 113q227 0 463 -105l-121 -305 q-205 94 -354 94q-77 0 -112 -27t-35 -67q0 -43 44.5 -77t241.5 -124q189 -85 262.5 -182.5t73.5 -245.5zM416 1579v29q154 165 195.5 213t68.5 86h428v-21q-80 -64 -220 -163t-212 -144h-260z" />
<glyph unicode="&#x15b;" horiz-adv-x="1092" d="M1010 348q0 -182 -124 -275t-356 -93q-126 0 -219 13.5t-190 49.5v313q91 -40 199.5 -66t193.5 -26q127 0 127 58q0 30 -35.5 53.5t-206.5 91.5q-156 64 -218 145.5t-62 206.5q0 158 122 246t345 88q112 0 210.5 -24.5t204.5 -71.5l-106 -252q-78 35 -165 59.5t-142 24.5 q-96 0 -96 -47q0 -29 33.5 -49.5t193.5 -83.5q119 -49 177.5 -96t86 -110.5t27.5 -154.5zM350 1241v29q154 165 195.5 213t68.5 86h428v-21q-80 -64 -220 -163t-212 -144h-260z" />
<glyph unicode="&#x15c;" horiz-adv-x="1182" d="M1114 444q0 -136 -69 -241.5t-199 -164t-305 -58.5q-146 0 -245 20.5t-206 71.5v352q113 -58 235 -90.5t224 -32.5q88 0 129 30.5t41 78.5q0 30 -16.5 52.5t-53 45.5t-194.5 94q-143 65 -214.5 126t-106 140t-34.5 187q0 202 147 315t404 113q227 0 463 -105l-121 -305 q-205 94 -354 94q-77 0 -112 -27t-35 -67q0 -43 44.5 -77t241.5 -124q189 -85 262.5 -182.5t73.5 -245.5zM823 1579q-84 48 -201 150q-125 -107 -194 -150h-258v29q69 65 144.5 153t113.5 146h393q94 -137 256 -299v-29h-254z" />
<glyph unicode="&#x15d;" horiz-adv-x="1092" d="M1010 348q0 -182 -124 -275t-356 -93q-126 0 -219 13.5t-190 49.5v313q91 -40 199.5 -66t193.5 -26q127 0 127 58q0 30 -35.5 53.5t-206.5 91.5q-156 64 -218 145.5t-62 206.5q0 158 122 246t345 88q112 0 210.5 -24.5t204.5 -71.5l-106 -252q-78 35 -165 59.5t-142 24.5 q-96 0 -96 -47q0 -29 33.5 -49.5t193.5 -83.5q119 -49 177.5 -96t86 -110.5t27.5 -154.5zM740 1241q-84 48 -201 150q-125 -107 -194 -150h-258v29q69 65 144.5 153t113.5 146h393q94 -137 256 -299v-29h-254z" />
<glyph unicode="&#x15e;" horiz-adv-x="1182" d="M1114 444q0 -136 -69 -241.5t-199 -164t-305 -58.5q-146 0 -245 20.5t-206 71.5v352q113 -58 235 -90.5t224 -32.5q88 0 129 30.5t41 78.5q0 30 -16.5 52.5t-53 45.5t-194.5 94q-143 65 -214.5 126t-106 140t-34.5 187q0 202 147 315t404 113q227 0 463 -105l-121 -305 q-205 94 -354 94q-77 0 -112 -27t-35 -67q0 -43 44.5 -77t241.5 -124q189 -85 262.5 -182.5t73.5 -245.5zM788 -252q0 -109 -75 -174.5t-199 -65.5q-136 0 -213 29v205q83 -27 147 -27q52 0 52 47q0 33 -41 58.5t-107 40.5l72 139h203l-9 -29q96 -39 133 -92.5t37 -130.5z " />
<glyph unicode="&#x15f;" horiz-adv-x="1092" d="M1010 348q0 -182 -124 -275t-356 -93q-126 0 -219 13.5t-190 49.5v313q91 -40 199.5 -66t193.5 -26q127 0 127 58q0 30 -35.5 53.5t-206.5 91.5q-156 64 -218 145.5t-62 206.5q0 158 122 246t345 88q112 0 210.5 -24.5t204.5 -71.5l-106 -252q-78 35 -165 59.5t-142 24.5 q-96 0 -96 -47q0 -29 33.5 -49.5t193.5 -83.5q119 -49 177.5 -96t86 -110.5t27.5 -154.5zM753 -252q0 -109 -75 -174.5t-199 -65.5q-136 0 -213 29v205q83 -27 147 -27q52 0 52 47q0 33 -41 58.5t-107 40.5l72 139h203l-9 -29q96 -39 133 -92.5t37 -130.5z" />
<glyph unicode="&#x160;" horiz-adv-x="1182" d="M1114 444q0 -136 -69 -241.5t-199 -164t-305 -58.5q-146 0 -245 20.5t-206 71.5v352q113 -58 235 -90.5t224 -32.5q88 0 129 30.5t41 78.5q0 30 -16.5 52.5t-53 45.5t-194.5 94q-143 65 -214.5 126t-106 140t-34.5 187q0 202 147 315t404 113q227 0 463 -105l-121 -305 q-205 94 -354 94q-77 0 -112 -27t-35 -67q0 -43 44.5 -77t241.5 -124q189 -85 262.5 -182.5t73.5 -245.5zM1085 1907v-29q-66 -66 -139 -150t-117 -149h-393q-39 60 -110.5 142.5t-147.5 156.5v29h258q69 -43 194 -150q117 102 201 150h254z" />
<glyph unicode="&#x161;" horiz-adv-x="1092" d="M1010 348q0 -182 -124 -275t-356 -93q-126 0 -219 13.5t-190 49.5v313q91 -40 199.5 -66t193.5 -26q127 0 127 58q0 30 -35.5 53.5t-206.5 91.5q-156 64 -218 145.5t-62 206.5q0 158 122 246t345 88q112 0 210.5 -24.5t204.5 -71.5l-106 -252q-78 35 -165 59.5t-142 24.5 q-96 0 -96 -47q0 -29 33.5 -49.5t193.5 -83.5q119 -49 177.5 -96t86 -110.5t27.5 -154.5zM1004 1569v-29q-66 -66 -139 -150t-117 -149h-393q-39 60 -110.5 142.5t-147.5 156.5v29h258q69 -43 194 -150q117 102 201 150h254z" />
<glyph unicode="&#x162;" horiz-adv-x="1210" d="M803 0h-395v1139h-357v323h1108v-323h-356v-1139zM848 -252q0 -109 -75 -174.5t-199 -65.5q-136 0 -213 29v205q83 -27 147 -27q52 0 52 47q0 33 -41 58.5t-107 40.5l72 139h203l-9 -29q96 -39 133 -92.5t37 -130.5z" />
<glyph unicode="&#x163;" horiz-adv-x="942" d="M690 289q79 0 189 39v-285q-79 -34 -150.5 -48.5t-167.5 -14.5q-197 0 -284 96.5t-87 296.5v467h-137v159l174 123l101 238h256v-227h278v-293h-278v-441q0 -110 106 -110zM778 -252q0 -109 -75 -174.5t-199 -65.5q-136 0 -213 29v205q83 -27 147 -27q52 0 52 47 q0 33 -41 58.5t-107 40.5l72 139h203l-9 -29q96 -39 133 -92.5t37 -130.5z" />
<glyph unicode="&#x164;" horiz-adv-x="1210" d="M803 0h-395v1139h-357v323h1108v-323h-356v-1139zM1060 1907v-29q-66 -66 -139 -150t-117 -149h-393q-39 60 -110.5 142.5t-147.5 156.5v29h258q69 -43 194 -150q117 102 201 150h254z" />
<glyph unicode="&#x165;" horiz-adv-x="983" d="M698 289q79 0 189 39v-285q-79 -34 -150.5 -48.5t-167.5 -14.5q-197 0 -284 96.5t-87 296.5v467h-137v159l174 123l101 238h256v-227h278v-293h-278v-441q0 -110 106 -110zM682 1277q43 185 57 299h355v-22q-144 -249 -179 -305h-233v28z" />
<glyph unicode="&#x166;" horiz-adv-x="1210" d="M408 872v267h-357v323h1108v-323h-356v-267h211v-325h-211v-547h-395v547h-207v325h207z" />
<glyph unicode="&#x167;" horiz-adv-x="983" d="M690 289q40 0 77 6t142 39v-291q-146 -63 -348 -63q-197 0 -284 96.5t-87 296.5v71h-116v244h116v152h-137v159l174 123l101 238h256v-227h309v-293h-309v-152h264v-244h-264v-45q0 -63 27.5 -86.5t78.5 -23.5z" />
<glyph unicode="&#x168;" horiz-adv-x="1550" d="M1401 1462v-880q0 -287 -162.5 -444.5t-468.5 -157.5q-299 0 -459.5 153t-160.5 440v889h397v-858q0 -155 58 -225t171 -70q121 0 175.5 69.5t54.5 227.5v856h395zM956 1577q-45 0 -90.5 15t-89.5 33t-85.5 33t-78.5 15q-54 0 -72 -98h-180q11 175 72 258.5t180 83.5 q38 0 81 -15t87 -33t87 -33t81 -15q29 0 46 25t26 73h182q-11 -167 -74 -254.5t-172 -87.5z" />
<glyph unicode="&#x169;" horiz-adv-x="1372" d="M942 0l-49 141h-23q-49 -78 -136.5 -119.5t-205.5 -41.5q-187 0 -291 108.5t-104 306.5v738h391v-619q0 -111 31.5 -168t103.5 -57q101 0 144 79.5t43 268.5v496h391v-1133h-295zM860 1239q-45 0 -90.5 15t-89.5 33t-85.5 33t-78.5 15q-54 0 -72 -98h-180 q11 175 72 258.5t180 83.5q38 0 81 -15t87 -33t87 -33t81 -15q29 0 46 25t26 73h182q-11 -167 -74 -254.5t-172 -87.5z" />
<glyph unicode="&#x16a;" horiz-adv-x="1550" d="M1401 1462v-880q0 -287 -162.5 -444.5t-468.5 -157.5q-299 0 -459.5 153t-160.5 440v889h397v-858q0 -155 58 -225t171 -70q121 0 175.5 69.5t54.5 227.5v856h395zM412 1815h727v-236h-727v236z" />
<glyph unicode="&#x16b;" horiz-adv-x="1372" d="M942 0l-49 141h-23q-49 -78 -136.5 -119.5t-205.5 -41.5q-187 0 -291 108.5t-104 306.5v738h391v-619q0 -111 31.5 -168t103.5 -57q101 0 144 79.5t43 268.5v496h391v-1133h-295zM318 1477h727v-236h-727v236z" />
<glyph unicode="&#x16c;" horiz-adv-x="1550" d="M1401 1462v-880q0 -287 -162.5 -444.5t-468.5 -157.5q-299 0 -459.5 153t-160.5 440v889h397v-858q0 -155 58 -225t171 -70q121 0 175.5 69.5t54.5 227.5v856h395zM1182 1950q-10 -171 -118 -271t-290 -100q-187 0 -289.5 95t-111.5 276h211q20 -78 57.5 -104.5 t132.5 -26.5q81 0 125.5 31.5t63.5 99.5h219z" />
<glyph unicode="&#x16d;" horiz-adv-x="1372" d="M942 0l-49 141h-23q-49 -78 -136.5 -119.5t-205.5 -41.5q-187 0 -291 108.5t-104 306.5v738h391v-619q0 -111 31.5 -168t103.5 -57q101 0 144 79.5t43 268.5v496h391v-1133h-295zM1090 1612q-10 -171 -118 -271t-290 -100q-187 0 -289.5 95t-111.5 276h211 q20 -78 57.5 -104.5t132.5 -26.5q81 0 125.5 31.5t63.5 99.5h219z" />
<glyph unicode="&#x16e;" horiz-adv-x="1550" d="M1401 1462v-880q0 -287 -162.5 -444.5t-468.5 -157.5q-299 0 -459.5 153t-160.5 440v889h397v-858q0 -155 58 -225t171 -70q121 0 175.5 69.5t54.5 227.5v856h395zM1046 1829q0 -113 -76 -183.5t-196 -70.5q-121 0 -192.5 68.5t-71.5 183.5q0 116 71.5 185t192.5 69 q118 0 195 -70t77 -182zM858 1827q0 38 -24.5 61t-59.5 23t-59.5 -23t-24.5 -61q0 -37 21 -60.5t63 -23.5q35 0 59.5 23.5t24.5 60.5z" />
<glyph unicode="&#x16f;" horiz-adv-x="1372" d="M942 0l-49 141h-23q-49 -78 -136.5 -119.5t-205.5 -41.5q-187 0 -291 108.5t-104 306.5v738h391v-619q0 -111 31.5 -168t103.5 -57q101 0 144 79.5t43 268.5v496h391v-1133h-295zM950 1491q0 -113 -76 -183.5t-196 -70.5q-121 0 -192.5 68.5t-71.5 183.5q0 116 71.5 185 t192.5 69q118 0 195 -70t77 -182zM762 1489q0 38 -24.5 61t-59.5 23t-59.5 -23t-24.5 -61q0 -37 21 -60.5t63 -23.5q35 0 59.5 23.5t24.5 60.5z" />
<glyph unicode="&#x170;" horiz-adv-x="1550" d="M1401 1462v-880q0 -287 -162.5 -444.5t-468.5 -157.5q-299 0 -459.5 153t-160.5 440v889h397v-858q0 -155 58 -225t171 -70q121 0 175.5 69.5t54.5 227.5v856h395zM363 1579v29l49 67q116 158 158 232h370v-21q-24 -39 -127.5 -123.5t-246.5 -183.5h-203zM826 1579v29 l49 67q116 155 158 232h372v-21q-26 -43 -140.5 -134t-236.5 -173h-202z" />
<glyph unicode="&#x171;" horiz-adv-x="1372" d="M942 0l-49 141h-23q-49 -78 -136.5 -119.5t-205.5 -41.5q-187 0 -291 108.5t-104 306.5v738h391v-619q0 -111 31.5 -168t103.5 -57q101 0 144 79.5t43 268.5v496h391v-1133h-295zM252 1241v29l49 67q116 158 158 232h370v-21q-24 -39 -127.5 -123.5t-246.5 -183.5h-203z M715 1241v29l49 67q116 155 158 232h372v-21q-26 -43 -140.5 -134t-236.5 -173h-202z" />
<glyph unicode="&#x172;" horiz-adv-x="1550" d="M1401 1462v-880q0 -287 -162.5 -444.5t-468.5 -157.5q-299 0 -459.5 153t-160.5 440v889h397v-858q0 -155 58 -225t171 -70q121 0 175.5 69.5t54.5 227.5v856h395zM830 -199q0 -67 78 -67q70 0 118 22v-221q-83 -27 -174 -27q-122 0 -199 64.5t-77 167.5q0 69 40 131.5 t134 128.5h213q-79 -74 -106 -117t-27 -82z" />
<glyph unicode="&#x173;" horiz-adv-x="1372" d="M942 0l-49 141h-23q-49 -78 -136.5 -119.5t-205.5 -41.5q-187 0 -291 108.5t-104 306.5v738h391v-619q0 -111 31.5 -168t103.5 -57q101 0 144 79.5t43 268.5v496h391v-1133h-295zM1026 -199q0 -67 78 -67q70 0 118 22v-221q-83 -27 -174 -27q-122 0 -199 64.5t-77 167.5 q0 69 40 131.5t134 128.5h213q-79 -74 -106 -117t-27 -82z" />
<glyph unicode="&#x174;" horiz-adv-x="2128" d="M1737 0h-467l-140 637q-10 40 -31.5 159t-31.5 199q-8 -65 -26 -161.5t-35.5 -177.5t-145.5 -656h-467l-362 1462h381l159 -733q54 -243 74 -387q13 102 46.5 277t62.5 290l129 553h366l125 -553q32 -133 65 -307t44 -260q13 111 71 385l162 735h381zM1255 1579 q-84 48 -201 150q-125 -107 -194 -150h-258v29q69 65 144.5 153t113.5 146h393q94 -137 256 -299v-29h-254z" />
<glyph unicode="&#x175;" horiz-adv-x="1864" d="M1110 0l-128 540l-30 163l-20 131h-6q-49 -280 -66 -353l-115 -481h-411l-309 1133h385l92 -435q44 -224 51 -372h6q3 92 55 350l105 457h432l96 -463q46 -221 58 -344h6q6 76 20 189.5t31 182.5l100 435h377l-311 -1133h-418zM1124 1241q-84 48 -201 150 q-125 -107 -194 -150h-258v29q69 65 144.5 153t113.5 146h393q94 -137 256 -299v-29h-254z" />
<glyph unicode="&#x176;" horiz-adv-x="1360" d="M680 920l252 542h428l-481 -891v-571h-398v559l-481 903h430zM883 1579q-84 48 -201 150q-125 -107 -194 -150h-258v29q69 65 144.5 153t113.5 146h393q94 -137 256 -299v-29h-254z" />
<glyph unicode="&#x177;" horiz-adv-x="1249" d="M-2 1133h412l192 -650q14 -51 19 -123h8q8 69 24 121l197 652h399l-448 -1205q-86 -230 -211.5 -325t-327.5 -95q-78 0 -160 17v307q53 -12 121 -12q52 0 91 20t68 56.5t62 119.5zM821 1241q-84 48 -201 150q-125 -107 -194 -150h-258v29q69 65 144.5 153t113.5 146h393 q94 -137 256 -299v-29h-254z" />
<glyph unicode="&#x178;" horiz-adv-x="1360" d="M680 920l252 542h428l-481 -891v-571h-398v559l-481 903h430zM268 1751q0 75 46 116.5t124 41.5q79 0 125.5 -42.5t46.5 -115.5q0 -71 -46.5 -113.5t-125.5 -42.5q-78 0 -124 41t-46 115zM747 1751q0 75 46 116.5t126 41.5t126.5 -43t46.5 -115q0 -71 -46.5 -113.5 t-126.5 -42.5q-81 0 -126.5 41.5t-45.5 114.5z" />
<glyph unicode="&#x179;" horiz-adv-x="1251" d="M1200 0h-1139v244l633 899h-618v319h1108v-243l-633 -900h649v-319zM377 1579v29q154 165 195.5 213t68.5 86h428v-21q-80 -64 -220 -163t-212 -144h-260z" />
<glyph unicode="&#x17a;" horiz-adv-x="1038" d="M987 0h-938v223l469 611h-442v299h889v-242l-449 -592h471v-299zM340 1241v29q154 165 195.5 213t68.5 86h428v-21q-80 -64 -220 -163t-212 -144h-260z" />
<glyph unicode="&#x17b;" horiz-adv-x="1251" d="M1200 0h-1139v244l633 899h-618v319h1108v-243l-633 -900h649v-319zM387 1753q0 88 49 131t158 43t159 -44t50 -130q0 -172 -209 -172q-207 0 -207 172z" />
<glyph unicode="&#x17c;" horiz-adv-x="1038" d="M987 0h-938v223l469 611h-442v299h889v-242l-449 -592h471v-299zM295 1415q0 88 49 131t158 43t159 -44t50 -130q0 -172 -209 -172q-207 0 -207 172z" />
<glyph unicode="&#x17d;" horiz-adv-x="1251" d="M1200 0h-1139v244l633 899h-618v319h1108v-243l-633 -900h649v-319zM1091 1907v-29q-66 -66 -139 -150t-117 -149h-393q-39 60 -110.5 142.5t-147.5 156.5v29h258q69 -43 194 -150q117 102 201 150h254z" />
<glyph unicode="&#x17e;" horiz-adv-x="1038" d="M987 0h-938v223l469 611h-442v299h889v-242l-449 -592h471v-299zM984 1569v-29q-66 -66 -139 -150t-117 -149h-393q-39 60 -110.5 142.5t-147.5 156.5v29h258q69 -43 194 -150q117 102 201 150h254z" />
<glyph unicode="&#x17f;" horiz-adv-x="825" d="M526 0h-391v1145q0 154 42 246.5t126.5 134t247.5 41.5q187 0 315 -54l-75 -260q-38 11 -74 22t-82 11q-60 0 -84.5 -32.5t-24.5 -116.5v-1137z" />
<glyph unicode="&#x192;" horiz-adv-x="1137" d="M991 840h-256v-924q0 -197 -99.5 -302.5t-281.5 -105.5q-42 0 -106.5 7.5t-108.5 21.5v301q62 -18 111 -18q94 0 94 143v877h-149v192l157 96v37q0 213 87 307.5t286 94.5q166 0 326 -54l-76 -258q-80 25 -139 25q-53 0 -77 -33t-24 -110v-4h256v-293z" />
<glyph unicode="&#x1a0;" horiz-adv-x="1731" d="M1528 733q0 -368 -181.5 -560.5t-531.5 -192.5q-344 0 -527.5 194t-183.5 561q0 365 184 557.5t533 192.5q361 0 537 -195q39 74 52 135t13 131h375l14 -22q-41 -198 -116 -304t-207 -163q39 -146 39 -334zM520 733q0 -424 295 -424q151 0 224 105t73 319 q0 217 -73.5 322.5t-221.5 105.5q-297 0 -297 -428z" />
<glyph unicode="&#x1a1;" horiz-adv-x="1479" d="M1217 569q0 -278 -149.5 -433.5t-418.5 -155.5q-258 0 -410.5 159t-152.5 430q0 277 149.5 430.5t419.5 153.5q116 0 221.5 -33.5t180.5 -101.5q49 23 76.5 97t27.5 185h377l14 -22q-28 -154 -71.5 -236.5t-116.5 -138t-184 -84.5q37 -115 37 -250zM485 569 q0 -139 38.5 -208.5t129.5 -69.5q88 0 127 69.5t39 208.5t-38.5 206t-129.5 67q-90 0 -128 -66.5t-38 -206.5z" />
<glyph unicode="&#x1af;" horiz-adv-x="1843" d="M1401 1462v-202q65 33 99 111.5t34 184.5h377l14 -22q-38 -178 -98.5 -270t-163 -149.5t-262.5 -78.5v-520q0 -159 -77.5 -281t-223 -188.5t-340.5 -66.5q-290 0 -450 144.5t-160 395.5v942h397v-897q0 -139 50 -197.5t175 -58.5q124 0 179 60.5t55 197.5v895h395z" />
<glyph unicode="&#x1b0;" horiz-adv-x="1659" d="M942 0v-3v-1l-50 149l1 -4h-27q-49 -79 -137 -120t-203 -41q-186 0 -289.5 109t-103.5 306v738h391v-619q0 -111 31.5 -168t103.5 -57q98 0 141.5 77t43.5 271v496h393v-134q49 28 76.5 109t27.5 190h377l15 -22q-28 -140 -65 -219t-95 -135t-141.5 -93t-194.5 -55v-774 h-295z" />
<glyph unicode="&#x1f0;" horiz-adv-x="664" d="M106 -492q-48 0 -110.5 7.5t-99.5 17.5v305q64 -18 120 -18q119 0 119 170v1143h391v-1225q0 -187 -109.5 -293.5t-310.5 -106.5zM779 1569v-29q-66 -66 -139 -150t-117 -149h-393q-39 60 -110.5 142.5t-147.5 156.5v29h258q69 -43 194 -150q117 102 201 150h254z" />
<glyph unicode="&#x1fa;" horiz-adv-x="1483" d="M1012 1483q0 -55 -19 -97h11l483 -1386h-432l-78 274h-469l-74 -274h-434l477 1386h12q-14 41 -14 95q0 116 72 185t192 69q119 0 196 -71t77 -181zM895 602l-64 209q-22 71 -50 176.5t-38 159.5q-10 -56 -26.5 -121t-120.5 -424h299zM571 1815q36 23 88 66t86 81h431 v-20q-29 -27 -147.5 -77.5t-197.5 -74.5h-260v25zM823 1481q0 38 -24.5 61t-59.5 23t-59.5 -23t-24.5 -61q0 -37 21 -60.5t63 -23.5q35 0 59.5 23.5t24.5 60.5zM739 1462z" />
<glyph unicode="&#x1fb;" d="M874 0l-75 150h-8q-79 -98 -161 -134t-212 -36q-161 0 -252.5 97.5t-91.5 274.5q0 180 115 267.5t376 95.5l189 6v16q0 140 -138 140q-124 0 -315 -84l-113 258q198 102 500 102q218 0 337.5 -108t119.5 -302v-743h-271zM584 256q71 0 121.5 45t50.5 117v88l-90 -4 q-193 -7 -193 -142q0 -104 111 -104zM463 1765v17q50 45 98.5 100t75.5 92h393v-12q-21 -24 -103 -76.5t-210 -120.5h-254zM926 1460q0 -111 -76 -182.5t-197 -71.5q-120 0 -192 69t-72 183q0 116 72 185t192 69q118 0 195.5 -69.5t77.5 -182.5zM737 1458q0 38 -24.5 61 t-59.5 23t-59.5 -23t-24.5 -61q0 -37 21 -60.5t63 -23.5q35 0 59.5 23.5t24.5 60.5z" />
<glyph unicode="&#x1fc;" horiz-adv-x="1937" d="M1839 0h-870v274h-437l-100 -274h-442l628 1462h1221v-317h-473v-230h438v-317h-438v-276h473v-322zM653 602h316v526h-111zM928 1579v29q154 165 195.5 213t68.5 86h428v-21q-80 -64 -220 -163t-212 -144h-260z" />
<glyph unicode="&#x1fd;" horiz-adv-x="1915" d="M1341 -20q-280 0 -430 190q-80 -83 -141.5 -120.5t-138.5 -53.5t-197 -16q-162 0 -261 101.5t-99 270.5q0 345 497 363l183 6v18q0 138 -136 138q-138 0 -313 -80l-110 256q190 100 454 100q201 0 336 -94q70 49 153 71.5t199 22.5q229 0 360.5 -136.5t131.5 -383.5v-172 h-696q4 -90 74 -146.5t186 -56.5q194 0 364 86v-281q-94 -48 -191 -65.5t-225 -17.5zM756 506l-84 -4q-106 -4 -152.5 -38.5t-46.5 -107.5q0 -100 113 -100q69 0 119.5 45t50.5 117v88zM1315 887q-162 0 -176 -180h340q-2 82 -48 131t-116 49zM776 1241v29 q154 165 195.5 213t68.5 86h428v-21q-80 -64 -220 -163t-212 -144h-260z" />
<glyph unicode="&#x1fe;" horiz-adv-x="1632" d="M1526 733q0 -369 -181 -561t-530 -192q-177 0 -307 43l-84 -132l-193 125l84 125q-211 194 -211 594q0 365 182.5 557.5t530.5 192.5q191 0 330 -55l76 118l190 -114l-82 -125q195 -189 195 -576zM1110 733q0 125 -18 211l-394 -620q54 -15 117 -15q150 0 222.5 103 t72.5 321zM520 733q0 -155 29 -239l403 639q-68 28 -135 28q-297 0 -297 -428zM602 1579v29q154 165 195.5 213t68.5 86h428v-21q-80 -64 -220 -163t-212 -144h-260z" />
<glyph unicode="&#x1ff;" horiz-adv-x="1362" d="M274 113q-188 158 -188 456q0 277 157 430.5t441 153.5q125 0 234 -39l71 111l168 -105l-67 -104q184 -158 184 -447q0 -280 -156.5 -434.5t-439.5 -154.5q-125 0 -229 34l-84 -131l-170 107zM461 569q0 -99 12 -147l289 448q-36 13 -82 13q-114 0 -166.5 -74t-52.5 -240 zM899 569q0 86 -10 131l-283 -442q27 -8 76 -8q114 0 165.5 73t51.5 246zM475 1241v29q154 165 195.5 213t68.5 86h428v-21q-80 -64 -220 -163t-212 -144h-260z" />
<glyph unicode="&#x218;" horiz-adv-x="1182" d="M1114 444q0 -136 -69 -241.5t-199 -164t-305 -58.5q-146 0 -245 20.5t-206 71.5v352q113 -58 235 -90.5t224 -32.5q88 0 129 30.5t41 78.5q0 30 -16.5 52.5t-53 45.5t-194.5 94q-143 65 -214.5 126t-106 140t-34.5 187q0 202 147 315t404 113q227 0 463 -105l-121 -305 q-205 94 -354 94q-77 0 -112 -27t-35 -67q0 -43 44.5 -77t241.5 -124q189 -85 262.5 -182.5t73.5 -245.5zM315 -424q16 56 30.5 146t16.5 153h355v-22q-71 -165 -168 -306h-234v29z" />
<glyph unicode="&#x219;" horiz-adv-x="1092" d="M1010 348q0 -182 -124 -275t-356 -93q-126 0 -219 13.5t-190 49.5v313q91 -40 199.5 -66t193.5 -26q127 0 127 58q0 30 -35.5 53.5t-206.5 91.5q-156 64 -218 145.5t-62 206.5q0 158 122 246t345 88q112 0 210.5 -24.5t204.5 -71.5l-106 -252q-78 35 -165 59.5t-142 24.5 q-96 0 -96 -47q0 -29 33.5 -49.5t193.5 -83.5q119 -49 177.5 -96t86 -110.5t27.5 -154.5zM281 -424q16 56 30.5 146t16.5 153h355v-22q-71 -165 -168 -306h-234v29z" />
<glyph unicode="&#x21a;" horiz-adv-x="1210" d="M803 0h-395v1139h-357v323h1108v-323h-356v-1139zM385 -424q16 56 30.5 146t16.5 153h355v-22q-71 -165 -168 -306h-234v29z" />
<glyph unicode="&#x21b;" horiz-adv-x="942" d="M690 289q79 0 189 39v-285q-79 -34 -150.5 -48.5t-167.5 -14.5q-197 0 -284 96.5t-87 296.5v467h-137v159l174 123l101 238h256v-227h278v-293h-278v-441q0 -110 106 -110zM321 -424q16 56 30.5 146t16.5 153h355v-22q-71 -165 -168 -306h-234v29z" />
<glyph unicode="&#x237;" horiz-adv-x="664" d="M106 -492q-48 0 -110.5 7.5t-99.5 17.5v305q64 -18 120 -18q119 0 119 170v1143h391v-1225q0 -187 -109.5 -293.5t-310.5 -106.5z" />
<glyph unicode="&#x2bc;" horiz-adv-x="512" d="M477 1460l15 -22q-92 -366 -177 -561h-278q68 317 98 583h342z" />
<glyph unicode="&#x2c6;" horiz-adv-x="1237" d="M817 1241q-84 48 -201 150q-125 -107 -194 -150h-258v29q69 65 144.5 153t113.5 146h393q94 -137 256 -299v-29h-254z" />
<glyph unicode="&#x2c7;" horiz-adv-x="1237" d="M1071 1569v-29q-66 -66 -139 -150t-117 -149h-393q-39 60 -110.5 142.5t-147.5 156.5v29h258q69 -43 194 -150q117 102 201 150h254z" />
<glyph unicode="&#x2c9;" horiz-adv-x="1214" d="M244 1477h727v-236h-727v236z" />
<glyph unicode="&#x2d8;" horiz-adv-x="1225" d="M1018 1612q-10 -171 -118 -271t-290 -100q-187 0 -289.5 95t-111.5 276h211q20 -78 57.5 -104.5t132.5 -26.5q81 0 125.5 31.5t63.5 99.5h219z" />
<glyph unicode="&#x2d9;" horiz-adv-x="666" d="M127 1415q0 88 49 131t158 43t159 -44t50 -130q0 -172 -209 -172q-207 0 -207 172z" />
<glyph unicode="&#x2da;" horiz-adv-x="1120" d="M829 1491q0 -113 -76 -183.5t-196 -70.5q-121 0 -192.5 68.5t-71.5 183.5q0 116 71.5 185t192.5 69q118 0 195 -70t77 -182zM641 1489q0 38 -24.5 61t-59.5 23t-59.5 -23t-24.5 -61q0 -37 21 -60.5t63 -23.5q35 0 59.5 23.5t24.5 60.5z" />
<glyph unicode="&#x2db;" horiz-adv-x="434" d="M248 -199q0 -67 78 -67q70 0 118 22v-221q-83 -27 -174 -27q-122 0 -199 64.5t-77 167.5q0 69 40 131.5t134 128.5h213q-79 -74 -106 -117t-27 -82z" />
<glyph unicode="&#x2dc;" horiz-adv-x="1225" d="M772 1239q-45 0 -90.5 15t-89.5 33t-85.5 33t-78.5 15q-54 0 -72 -98h-180q11 175 72 258.5t180 83.5q38 0 81 -15t87 -33t87 -33t81 -15q29 0 46 25t26 73h182q-11 -167 -74 -254.5t-172 -87.5z" />
<glyph unicode="&#x2dd;" horiz-adv-x="1198" d="M78 1241v29l49 67q116 158 158 232h370v-21q-24 -39 -127.5 -123.5t-246.5 -183.5h-203zM541 1241v29l49 67q116 155 158 232h372v-21q-26 -43 -140.5 -134t-236.5 -173h-202z" />
<glyph unicode="&#x2f3;" horiz-adv-x="670" d="M598 -346q0 -114 -75.5 -184t-194.5 -70q-120 0 -192.5 68t-72.5 184q0 114 72 183t193 69q116 0 193 -69.5t77 -180.5zM414 -348q0 37 -23.5 60.5t-60.5 23.5q-35 0 -58.5 -23.5t-23.5 -60.5t20 -60.5t62 -23.5q35 0 59.5 23.5t24.5 60.5z" />
<glyph unicode="&#x300;" horiz-adv-x="0" d="M-712 1241q-69 44 -203.5 138.5t-228.5 168.5v21h430q52 -70 203 -233l59 -66v-29h-260z" />
<glyph unicode="&#x301;" horiz-adv-x="0" d="M-939 1241v29q154 165 195.5 213t68.5 86h428v-21q-80 -64 -220 -163t-212 -144h-260z" />
<glyph unicode="&#x303;" horiz-adv-x="0" d="M-583 1239q-45 0 -90.5 15t-89.5 33t-85.5 33t-78.5 15q-54 0 -72 -98h-180q11 175 72 258.5t180 83.5q38 0 81 -15t87 -33t87 -33t81 -15q29 0 46 25t26 73h182q-11 -167 -74 -254.5t-172 -87.5z" />
<glyph unicode="&#x309;" horiz-adv-x="0" d="M-406 1483q0 -78 -41.5 -133t-127.5 -78l-11 -47h-207l-28 129q66 8 89 29.5t23 58.5q0 29 -20 46t-51 17q-30 0 -54 -4t-84 -24v204q93 31 220 31q143 0 217.5 -60t74.5 -169z" />
<glyph unicode="&#x30f;" horiz-adv-x="0" d="M-571 1241q-83 65 -184 162t-130 145v21h342q34 -75 83.5 -158.5t90.5 -140.5v-29h-202zM-995 1241q-83 65 -184 163.5t-128 143.5v21h342q32 -70 82.5 -158t89.5 -141v-29h-202z" />
<glyph unicode="&#x323;" horiz-adv-x="0" d="M-954 -305q0 88 49 131t157 43q109 0 159 -44t50 -130q0 -174 -209 -174q-105 0 -155.5 43t-50.5 131z" />
<glyph unicode="&#x384;" horiz-adv-x="1108" d="M406 1274q20 68 43 179.5t32 174.5h344v-26q-82 -180 -194 -361h-225v33z" />
<glyph unicode="&#x385;" horiz-adv-x="1157" d="M461 1417q36 210 39 299h307v-20q-50 -118 -174 -307h-172v28zM115 1413q0 158 153 158q69 0 112.5 -38t43.5 -120q0 -80 -43.5 -118t-112.5 -38q-153 0 -153 156zM729 1413q0 158 158 158q71 0 113 -38t42 -120q0 -80 -42 -118t-113 -38q-158 0 -158 156z" />
<glyph unicode="&#x386;" horiz-adv-x="1513" d="M1082 0l-72 274h-475l-74 -274h-434l477 1468h527l483 -1468h-432zM928 598l-63 240q-22 80 -53.5 207t-41.5 182q-9 -51 -35.5 -168t-117.5 -461h311zM-80 1169q20 68 43 179.5t32 174.5h344v-26q-82 -180 -194 -361h-225v33z" />
<glyph unicode="&#x387;" horiz-adv-x="592" d="M86 723q0 92 54.5 142t158.5 50q99 0 152 -50t53 -142q0 -90 -54.5 -141.5t-150.5 -51.5q-100 0 -156.5 51t-56.5 142z" />
<glyph unicode="&#x388;" horiz-adv-x="1350" d="M1251 0h-868v1462h868v-317h-473v-230h438v-317h-438v-276h473v-322zM-80 1169q20 68 43 179.5t32 174.5h344v-26q-82 -180 -194 -361h-225v33z" />
<glyph unicode="&#x389;" horiz-adv-x="1778" d="M1620 0h-397v596h-459v-596h-397v1462h397v-542h459v542h397v-1462zM-80 1169q20 68 43 179.5t32 174.5h344v-26q-82 -180 -194 -361h-225v33z" />
<glyph unicode="&#x38a;" horiz-adv-x="928" d="M373 0v1462h397v-1462h-397zM-80 1169q20 68 43 179.5t32 174.5h344v-26q-82 -180 -194 -361h-225v33z" />
<glyph unicode="&#x38c;" horiz-adv-x="1751" d="M1645 733q0 -369 -181 -561t-530 -192q-344 0 -527.5 193t-183.5 562q0 365 182.5 557.5t530.5 192.5q349 0 529 -191t180 -561zM639 733q0 -424 295 -424q150 0 222.5 103t72.5 321q0 219 -73.5 323.5t-219.5 104.5q-297 0 -297 -428zM-80 1169q20 68 43 179.5t32 174.5 h344v-26q-82 -180 -194 -361h-225v33z" />
<glyph unicode="&#x38e;" horiz-adv-x="1745" d="M1065 920l252 542h428l-481 -891v-571h-398v559l-481 903h430zM-80 1169q20 68 43 179.5t32 174.5h344v-26q-82 -180 -194 -361h-225v33z" />
<glyph unicode="&#x38f;" horiz-adv-x="1745" d="M942 1161q-144 0 -225.5 -98.5t-81.5 -265.5q0 -164 49.5 -262t163.5 -170v-365h-672v324h373q-149 72 -234.5 218.5t-85.5 321.5q0 287 194 454t519 167q212 0 374.5 -75.5t250.5 -217t88 -326.5q0 -178 -85 -320.5t-243 -221.5h381v-324h-678v365q120 75 169.5 174 t49.5 262q0 166 -82 263t-225 97zM-80 1169q20 68 43 179.5t32 174.5h344v-26q-82 -180 -194 -361h-225v33z" />
<glyph unicode="&#x390;" horiz-adv-x="891" d="M524 1133v-744q0 -102 117 -102q55 0 102 10.5t107 32.5v-287q-133 -63 -309 -63q-210 0 -309 98.5t-99 292.5v762h391zM251 1417q36 210 39 299h307v-20q-50 -118 -174 -307h-172v28zM-95 1413q0 158 153 158q69 0 112.5 -38t43.5 -120q0 -80 -43.5 -118t-112.5 -38 q-153 0 -153 156zM519 1413q0 158 158 158q71 0 113 -38t42 -120q0 -80 -42 -118t-113 -38q-158 0 -158 156z" />
<glyph unicode="&#x391;" horiz-adv-x="1487" d="M1055 0l-72 274h-475l-74 -274h-434l477 1468h527l483 -1468h-432zM901 598l-63 240q-22 80 -53.5 207t-41.5 182q-9 -51 -35.5 -168t-117.5 -461h311z" />
<glyph unicode="&#x392;" horiz-adv-x="1380" d="M158 1462h510q298 0 442.5 -88.5t144.5 -275.5q0 -123 -63 -210t-166 -112v-10q136 -36 197 -120t61 -218q0 -199 -149.5 -313.5t-407.5 -114.5h-569v1462zM553 901h119q85 0 131.5 35t46.5 104q0 123 -186 123h-111v-262zM553 612v-307h139q185 0 185 156 q0 73 -49.5 112t-143.5 39h-131z" />
<glyph unicode="&#x393;" horiz-adv-x="1184" d="M1133 1462v-319h-578v-1143h-397v1462h975z" />
<glyph unicode="&#x394;" horiz-adv-x="1446" d="M33 223l459 1250h466l455 -1252v-221h-1380v223zM723 1161q-12 -82 -31 -143l-227 -694h518l-227 694q-20 56 -33 143z" />
<glyph unicode="&#x395;" horiz-adv-x="1124" d="M1026 0h-868v1462h868v-317h-473v-230h438v-317h-438v-276h473v-322z" />
<glyph unicode="&#x396;" horiz-adv-x="1251" d="M1200 0h-1139v244l633 899h-618v319h1108v-243l-633 -900h649v-319z" />
<glyph unicode="&#x397;" horiz-adv-x="1569" d="M1411 0h-397v596h-459v-596h-397v1462h397v-542h459v542h397v-1462z" />
<glyph unicode="&#x398;" horiz-adv-x="1632" d="M1526 733q0 -369 -181 -561t-530 -192q-344 0 -527.5 193t-183.5 562q0 365 182.5 557.5t530.5 192.5q349 0 529 -191t180 -561zM496 733q0 -222 80 -329t239 -107q163 0 241.5 106t78.5 330t-78 332.5t-240 108.5q-163 0 -242 -109.5t-79 -331.5zM610 893h412v-299h-412 v299z" />
<glyph unicode="&#x399;" horiz-adv-x="713" d="M158 0v1462h397v-1462h-397z" />
<glyph unicode="&#x39a;" horiz-adv-x="1407" d="M1407 0h-446l-289 559l-117 -70v-489h-397v1462h397v-635q30 59 121 187l307 448h432l-461 -655z" />
<glyph unicode="&#x39b;" horiz-adv-x="1421" d="M442 0h-442l479 1462h465l477 -1462h-444l-199 741q-19 76 -41.5 186t-25.5 158q-5 -51 -25.5 -160.5t-40.5 -179.5z" />
<glyph unicode="&#x39c;" horiz-adv-x="1980" d="M795 0l-299 1053h-9q21 -269 21 -418v-635h-350v1462h526l305 -1038h8l299 1038h527v-1462h-363v641q0 50 1.5 111t13.5 299h-9l-295 -1051h-376z" />
<glyph unicode="&#x39d;" horiz-adv-x="1708" d="M1550 0h-518l-534 1030h-9q19 -243 19 -371v-659h-350v1462h516l532 -1016h6q-14 221 -14 355v661h352v-1462z" />
<glyph unicode="&#x39e;" horiz-adv-x="1176" d="M203 915h770v-317h-770v317zM121 1462h934v-317h-934v317zM1096 322v-322h-1016v322h1016z" />
<glyph unicode="&#x39f;" horiz-adv-x="1632" d="M1526 733q0 -369 -181 -561t-530 -192q-344 0 -527.5 193t-183.5 562q0 365 182.5 557.5t530.5 192.5q349 0 529 -191t180 -561zM520 733q0 -424 295 -424q150 0 222.5 103t72.5 321q0 219 -73.5 323.5t-219.5 104.5q-297 0 -297 -428z" />
<glyph unicode="&#x3a0;" horiz-adv-x="1513" d="M1356 0h-398v1139h-403v-1139h-397v1462h1198v-1462z" />
<glyph unicode="&#x3a1;" horiz-adv-x="1294" d="M1219 997q0 -245 -144.5 -378.5t-410.5 -133.5h-111v-485h-395v1462h506q277 0 416 -121t139 -344zM553 807h72q89 0 141.5 50t52.5 138q0 148 -164 148h-102v-336z" />
<glyph unicode="&#x3a3;" horiz-adv-x="1233" d="M74 0v307l444 461l-432 397v297h1012v-317h-336q-158 0 -236 10l422 -385l-444 -461q143 13 252 13h401v-322h-1083z" />
<glyph unicode="&#x3a4;" horiz-adv-x="1210" d="M803 0h-395v1139h-357v323h1108v-323h-356v-1139z" />
<glyph unicode="&#x3a5;" horiz-adv-x="1360" d="M680 920l252 542h428l-481 -891v-571h-398v559l-481 903h430z" />
<glyph unicode="&#x3a6;" horiz-adv-x="1831" d="M725 1483h381v-180h29q188 0 328.5 -69t216 -194t75.5 -284q0 -166 -74 -290.5t-217 -192.5t-346 -68h-12v-225h-381v225h-20q-202 0 -343.5 66.5t-213.5 190t-72 296.5q0 163 76.5 289.5t214 191t321.5 64.5h37v180zM1106 504h12q126 0 189 62t63 192q0 114 -65 178.5 t-183 64.5h-16v-497zM725 1001h-23q-117 0 -179 -62t-62 -181q0 -135 60.5 -194.5t183.5 -59.5h20v497z" />
<glyph unicode="&#x3a7;" horiz-adv-x="1481" d="M1475 0h-457l-285 457l-282 -457h-447l485 748l-456 714h438l264 -452l254 452h451l-463 -745z" />
<glyph unicode="&#x3a8;" horiz-adv-x="1905" d="M1143 0h-381v397h-37q-326 0 -469 131.5t-143 429.5v504h389v-499q0 -126 56 -183t187 -57h17v739h381v-739h20q114 0 177 61.5t63 173.5v504h389v-477q0 -305 -145 -446.5t-465 -141.5h-39v-397z" />
<glyph unicode="&#x3a9;" horiz-adv-x="1630" d="M815 1161q-144 0 -225.5 -98.5t-81.5 -265.5q0 -164 49.5 -262t163.5 -170v-365h-672v324h373q-149 72 -234.5 218.5t-85.5 321.5q0 287 194 454t519 167q212 0 374.5 -75.5t250.5 -217t88 -326.5q0 -178 -85 -320.5t-243 -221.5h381v-324h-678v365q120 75 169.5 174 t49.5 262q0 166 -82 263t-225 97z" />
<glyph unicode="&#x3aa;" horiz-adv-x="713" d="M158 0v1462h397v-1462h-397zM-57 1751q0 75 46 116.5t124 41.5q79 0 125.5 -42.5t46.5 -115.5q0 -71 -46.5 -113.5t-125.5 -42.5q-78 0 -124 41t-46 115zM422 1751q0 75 46 116.5t126 41.5t126.5 -43t46.5 -115q0 -71 -46.5 -113.5t-126.5 -42.5q-81 0 -126.5 41.5 t-45.5 114.5z" />
<glyph unicode="&#x3ab;" horiz-adv-x="1360" d="M680 920l252 542h428l-481 -891v-571h-398v559l-481 903h430zM293 1751q0 75 46 116.5t124 41.5q79 0 125.5 -42.5t46.5 -115.5q0 -71 -46.5 -113.5t-125.5 -42.5q-78 0 -124 41t-46 115zM772 1751q0 75 46 116.5t126 41.5t126.5 -43t46.5 -115q0 -71 -46.5 -113.5 t-126.5 -42.5q-81 0 -126.5 41.5t-45.5 114.5z" />
<glyph unicode="&#x3ac;" horiz-adv-x="1376" d="M516 -20q-202 0 -316 154.5t-114 426.5q0 280 120.5 434t336.5 154q116 0 190 -41t121 -127h16q29 105 70 152h328q-39 -105 -61.5 -231t-22.5 -238v-256q0 -121 82 -121q32 0 59 10v-291q-16 -10 -71.5 -18t-84.5 -8q-129 0 -198.5 39t-112.5 128h-24 q-110 -167 -318 -167zM649 283q89 0 130.5 59.5t43.5 210.5v10q0 149 -43 216t-135 67q-80 0 -121 -74t-41 -213q0 -276 166 -276zM519 1274q20 68 43 179.5t32 174.5h344v-26q-82 -180 -194 -361h-225v33z" />
<glyph unicode="&#x3ad;" horiz-adv-x="1135" d="M842 715v-254h-148q-90 0 -141 -9t-74.5 -27.5t-23.5 -57.5q0 -97 207 -97q209 0 401 88v-299q-109 -46 -217 -62.5t-242 -16.5q-277 0 -409 83t-132 259q0 104 73.5 177t199.5 89v10q-94 25 -149.5 91t-55.5 157q0 148 129 227.5t373 79.5q111 0 208.5 -18t221.5 -68 l-111 -264q-158 71 -303 71q-149 0 -149 -75q0 -45 51 -64.5t168 -19.5h123zM539 1274q20 68 43 179.5t32 174.5h344v-26q-82 -180 -194 -361h-225v33z" />
<glyph unicode="&#x3ae;" horiz-adv-x="1372" d="M850 -492v1137q0 201 -137 201q-99 0 -143 -79t-44 -271v-496h-391v1133h295l49 -140h23q50 80 138.5 120t203.5 40q188 0 292.5 -109t104.5 -307v-1229h-391zM590 1274q20 68 43 179.5t32 174.5h344v-26q-82 -180 -194 -361h-225v33z" />
<glyph unicode="&#x3af;" horiz-adv-x="891" d="M524 1133v-744q0 -102 117 -102q55 0 102 10.5t107 32.5v-287q-133 -63 -309 -63q-210 0 -309 98.5t-99 292.5v762h391zM229 1274q20 68 43 179.5t32 174.5h344v-26q-82 -180 -194 -361h-225v33z" />
<glyph unicode="&#x3b0;" horiz-adv-x="1358" d="M676 -16q-272 0 -408.5 129.5t-136.5 404.5v615h391v-635q0 -114 39.5 -160.5t122.5 -46.5q99 0 141.5 75.5t42.5 251.5q0 223 -77 515h395q42 -158 58 -276.5t16 -246.5q0 -314 -143.5 -470t-440.5 -156zM545 1417q36 210 39 299h307v-20q-50 -118 -174 -307h-172v28z M199 1413q0 158 153 158q69 0 112.5 -38t43.5 -120q0 -80 -43.5 -118t-112.5 -38q-153 0 -153 156zM813 1413q0 158 158 158q71 0 113 -38t42 -120q0 -80 -42 -118t-113 -38q-158 0 -158 156z" />
<glyph unicode="&#x3b1;" horiz-adv-x="1376" d="M516 -20q-202 0 -316 154.5t-114 426.5q0 280 120.5 434t336.5 154q116 0 190 -41t121 -127h16q29 105 70 152h328q-39 -105 -61.5 -231t-22.5 -238v-256q0 -121 82 -121q32 0 59 10v-291q-16 -10 -71.5 -18t-84.5 -8q-129 0 -198.5 39t-112.5 128h-24 q-110 -167 -318 -167zM649 283q89 0 130.5 59.5t43.5 210.5v10q0 149 -43 216t-135 67q-80 0 -121 -74t-41 -213q0 -276 166 -276z" />
<glyph unicode="&#x3b2;" horiz-adv-x="1403" d="M702 1567q248 0 388.5 -105t140.5 -291q0 -148 -73.5 -233t-207.5 -107v-8q192 -25 281.5 -119.5t89.5 -259.5q0 -213 -131 -338.5t-350 -125.5q-96 0 -179 16.5t-135 42.5v-531h-391v1588q0 224 149.5 347.5t417.5 123.5zM690 1276q-85 0 -124.5 -53.5t-39.5 -161.5 v-721q30 -22 87.5 -37.5t103.5 -15.5q96 0 151.5 48.5t55.5 145.5q0 79 -54 125.5t-151 46.5h-57v291h38q68 0 105 46t37 124t-42 120t-110 42z" />
<glyph unicode="&#x3b3;" horiz-adv-x="1235" d="M725 -492h-412q0 81 26 221.5t71 282.5l-412 1121h408l116 -367q48 -158 64.5 -233.5t23.5 -135.5h8q21 144 91 351l125 385h407l-418 -1119q-43 -111 -70.5 -253.5t-27.5 -252.5z" />
<glyph unicode="&#x3b4;" horiz-adv-x="1303" d="M446 899q-217 141 -217 352q0 156 125.5 240t362.5 84q264 0 502 -115l-146 -282q-212 106 -350 106q-121 0 -121 -65q0 -32 38.5 -64t223.5 -135q181 -100 267 -229.5t86 -311.5q0 -240 -150.5 -369.5t-421.5 -129.5q-253 0 -406 124t-153 334q0 342 360 461zM819 481 q0 152 -164 269q-75 -25 -123.5 -105.5t-48.5 -183.5q0 -87 45 -139t121 -52q79 0 124.5 55.5t45.5 155.5z" />
<glyph unicode="&#x3b5;" horiz-adv-x="1135" d="M842 715v-254h-148q-90 0 -141 -9t-74.5 -27.5t-23.5 -57.5q0 -97 207 -97q209 0 401 88v-299q-109 -46 -217 -62.5t-242 -16.5q-277 0 -409 83t-132 259q0 104 73.5 177t199.5 89v10q-94 25 -149.5 91t-55.5 157q0 148 129 227.5t373 79.5q111 0 208.5 -18t221.5 -68 l-111 -264q-158 71 -303 71q-149 0 -149 -75q0 -45 51 -64.5t168 -19.5h123z" />
<glyph unicode="&#x3b6;" horiz-adv-x="1044" d="M86 471q0 212 128.5 414t393.5 403q-75 -22 -166 -22h-301v290h897v-231q-288 -235 -421.5 -432.5t-133.5 -403.5q0 -85 54.5 -125.5t224.5 -78.5q150 -31 224.5 -104.5t74.5 -198.5q0 -163 -139 -347h-400q65 71 108.5 149t43.5 114q0 31 -19 49t-65 35t-150 43 q-131 31 -208 85t-111.5 136t-34.5 225z" />
<glyph unicode="&#x3b7;" horiz-adv-x="1372" d="M850 -492v1137q0 201 -137 201q-99 0 -143 -79t-44 -271v-496h-391v1133h295l49 -140h23q50 80 138.5 120t203.5 40q188 0 292.5 -109t104.5 -307v-1229h-391z" />
<glyph unicode="&#x3b8;" horiz-adv-x="1315" d="M1229 780q0 -406 -142.5 -603t-431.5 -197q-277 0 -423 204.5t-146 595.5q0 408 141 603.5t428 195.5q281 0 427.5 -205.5t146.5 -593.5zM655 254q88 0 130.5 97t45.5 290h-348q2 -190 43 -288.5t129 -98.5zM659 1305q-86 0 -126.5 -96t-45.5 -294h347q-7 198 -48.5 294 t-126.5 96z" />
<glyph unicode="&#x3b9;" horiz-adv-x="891" d="M524 1133v-744q0 -102 117 -102q55 0 102 10.5t107 32.5v-287q-133 -63 -309 -63q-210 0 -309 98.5t-99 292.5v762h391z" />
<glyph unicode="&#x3ba;" horiz-adv-x="1350" d="M926 637l424 -637h-441l-252 399l-129 -98v-301h-393v1133h393v-246q0 -117 -10 -244h8q19 26 49 73t72 101l246 316h438z" />
<glyph unicode="&#x3bb;" horiz-adv-x="1362" d="M0 0l487 1057l-14 41q-28 82 -74.5 123t-126.5 41q-67 0 -135 -17v307q40 9 98 13t91 4q202 0 314 -83.5t185 -285.5l246 -688q33 -90 59.5 -137.5t55.5 -67.5t82 -20q37 0 75 10v-283q-23 -12 -97.5 -23t-119.5 -11q-124 0 -210.5 67t-145.5 223l-70 191 q-36 106 -51 192h-8q-20 -119 -49 -190l-186 -463h-406z" />
<glyph unicode="&#x3bc;" horiz-adv-x="1376" d="M526 518q0 -115 33.5 -172t112.5 -57q93 0 134.5 83t41.5 265v496h393v-1133h-293l-53 152h-16q-34 -88 -90.5 -130t-122.5 -42q-56 0 -90 20t-62 63q12 -90 12 -235v-320h-391v1625h391v-615z" />
<glyph unicode="&#x3bd;" horiz-adv-x="1270" d="M0 1133h401l205 -639q23 -71 35 -142h10q85 159 120.5 338t35.5 443h391q0 -340 -103.5 -606.5t-338.5 -526.5h-328z" />
<glyph unicode="&#x3be;" horiz-adv-x="1057" d="M86 426q0 141 70.5 233.5t210.5 149.5v8q-217 46 -217 238q0 84 56.5 143t155.5 80l-40 -4q-59 -8 -148 -8h-55v290h891v-290h-164q-307 0 -307 -183q0 -73 57 -104t178 -31h162v-286h-160q-144 0 -218.5 -44t-74.5 -145q0 -57 24 -87t82 -54t161 -45q311 -64 311 -305 q0 -163 -139 -347h-400q65 71 108.5 149t43.5 114q0 44 -37.5 68t-153.5 50q-207 46 -302 149t-95 261z" />
<glyph unicode="&#x3bf;" horiz-adv-x="1305" d="M1217 569q0 -278 -149.5 -433.5t-418.5 -155.5q-258 0 -410.5 159t-152.5 430q0 277 149.5 430.5t419.5 153.5q167 0 295 -71t197.5 -203.5t69.5 -309.5zM483 569q0 -146 39 -222.5t131 -76.5q91 0 128.5 76.5t37.5 222.5q0 145 -38 219t-130 74q-90 0 -129 -73.5 t-39 -219.5z" />
<glyph unicode="&#x3c0;" horiz-adv-x="1628" d="M1393 287q34 0 77.5 9.5t77.5 25.5v-269q-51 -32 -135.5 -52.5t-167.5 -20.5q-173 0 -255.5 91.5t-82.5 280.5v490h-252v-842h-391v842h-241v166l200 125h1325v-291h-250v-447q0 -51 25 -79.5t70 -28.5z" />
<glyph unicode="&#x3c1;" horiz-adv-x="1331" d="M1245 565q0 -275 -119 -430t-327 -155q-76 0 -149 18t-124 49h-26q22 -158 22 -266v-273h-391v1051q0 280 148 437t415 157q161 0 287.5 -73t195 -207t68.5 -308zM688 862q-166 0 -166 -250v-254q31 -37 78 -56t90 -19q85 0 121.5 66t36.5 216q0 157 -38.5 227t-121.5 70 z" />
<glyph unicode="&#x3c2;" horiz-adv-x="1092" d="M86 557q0 287 150.5 441.5t431.5 154.5q203 0 397 -94l-111 -287q-71 30 -149.5 52t-136.5 22q-90 0 -137.5 -74.5t-47.5 -220.5q0 -88 26.5 -134t86.5 -77.5t166 -54.5q150 -31 224.5 -104.5t74.5 -198.5q0 -163 -139 -347h-400q65 71 108.5 149t43.5 114 q0 33 -21.5 51.5t-74.5 37t-138 38.5q-133 31 -206.5 95t-110.5 170.5t-37 266.5z" />
<glyph unicode="&#x3c3;" horiz-adv-x="1395" d="M664 -20q-268 0 -423 145t-155 399q0 313 165.5 461t514.5 148h575v-291h-278q182 -132 182 -365q0 -149 -70 -262.5t-201 -174t-310 -60.5zM485 526q0 -113 48.5 -174t134.5 -61q180 0 180 246q0 64 -8.5 110t-26.5 86t-68 109h-22q-127 0 -182.5 -73.5t-55.5 -242.5z " />
<glyph unicode="&#x3c4;" horiz-adv-x="1083" d="M684 842v-447q0 -52 26 -80t74 -28q79 0 193 43v-285q-128 -63 -305 -63q-204 0 -291.5 94.5t-87.5 296.5v469h-270v166l194 125h801v-291h-334z" />
<glyph unicode="&#x3c5;" horiz-adv-x="1358" d="M676 -16q-272 0 -408.5 129.5t-136.5 404.5v615h391v-635q0 -114 39.5 -160.5t122.5 -46.5q99 0 141.5 75.5t42.5 251.5q0 223 -77 515h395q42 -158 58 -276.5t16 -246.5q0 -314 -143.5 -470t-440.5 -156z" />
<glyph unicode="&#x3c6;" horiz-adv-x="1733" d="M664 -492v484q-274 19 -426 167.5t-152 395.5q0 167 55.5 315.5t175.5 296.5l291 -176q-65 -86 -103 -205t-38 -237q0 -113 50.5 -176.5t146.5 -89.5v405q0 233 110 346t340 113q246 0 389.5 -143t143.5 -400q0 -265 -162.5 -425.5t-450.5 -186.5v-484h-370zM1257 602 q0 126 -36 190t-101 64q-49 0 -67.5 -34.5t-18.5 -119.5v-419q105 8 164 90t59 229z" />
<glyph unicode="&#x3c7;" horiz-adv-x="1323" d="M272 1151q160 0 246 -64.5t148 -226.5l41 -106l188 379h408l-422 -752l180 -455q43 -110 127 -110q54 0 106 14v-281q-108 -41 -241 -41q-134 0 -218 73.5t-133 230.5l-73 223l-244 -527h-438l508 900l-119 313q-48 123 -137 123q-61 0 -133 -25v293q105 39 206 39z" />
<glyph unicode="&#x3c8;" horiz-adv-x="1831" d="M1108 1554v-1263q139 14 191.5 80t52.5 209q0 261 -90 553h376q55 -171 75 -302t20 -258q0 -273 -157.5 -423t-467.5 -166v-476h-371v476q-606 18 -606 573v576h381v-586q0 -127 51 -187t174 -69v1263h371z" />
<glyph unicode="&#x3c9;" horiz-adv-x="1872" d="M1280 -20q-134 0 -215 54t-123 175h-12q-38 -111 -118 -170t-222 -59q-231 0 -361.5 152.5t-130.5 418.5q0 156 24 286.5t83 295.5h399q-125 -250 -125 -566q0 -151 32.5 -217.5t111.5 -66.5q76 0 101.5 52t25.5 191v275h372v-275q0 -101 11 -151t36.5 -71t79.5 -21 q73 0 108.5 67.5t35.5 210.5q0 144 -30 293t-95 279h399q59 -157 83 -293.5t24 -288.5q0 -268 -131.5 -419.5t-362.5 -151.5z" />
<glyph unicode="&#x3ca;" horiz-adv-x="891" d="M524 1133v-744q0 -102 117 -102q55 0 102 10.5t107 32.5v-287q-133 -63 -309 -63q-210 0 -309 98.5t-99 292.5v762h391zM-42 1413q0 75 46 116.5t124 41.5q79 0 125.5 -42.5t46.5 -115.5q0 -71 -46.5 -113.5t-125.5 -42.5q-78 0 -124 41t-46 115zM437 1413q0 75 46 116.5 t126 41.5t126.5 -43t46.5 -115q0 -71 -46.5 -113.5t-126.5 -42.5q-81 0 -126.5 41.5t-45.5 114.5z" />
<glyph unicode="&#x3cb;" horiz-adv-x="1358" d="M676 -16q-272 0 -408.5 129.5t-136.5 404.5v615h391v-635q0 -114 39.5 -160.5t122.5 -46.5q99 0 141.5 75.5t42.5 251.5q0 223 -77 515h395q42 -158 58 -276.5t16 -246.5q0 -314 -143.5 -470t-440.5 -156zM256 1413q0 75 46 116.5t124 41.5q79 0 125.5 -42.5t46.5 -115.5 q0 -71 -46.5 -113.5t-125.5 -42.5q-78 0 -124 41t-46 115zM735 1413q0 75 46 116.5t126 41.5t126.5 -43t46.5 -115q0 -71 -46.5 -113.5t-126.5 -42.5q-81 0 -126.5 41.5t-45.5 114.5z" />
<glyph unicode="&#x3cc;" horiz-adv-x="1305" d="M1217 569q0 -278 -149.5 -433.5t-418.5 -155.5q-258 0 -410.5 159t-152.5 430q0 277 149.5 430.5t419.5 153.5q167 0 295 -71t197.5 -203.5t69.5 -309.5zM483 569q0 -146 39 -222.5t131 -76.5q91 0 128.5 76.5t37.5 222.5q0 145 -38 219t-130 74q-90 0 -129 -73.5 t-39 -219.5zM543 1274q20 68 43 179.5t32 174.5h344v-26q-82 -180 -194 -361h-225v33z" />
<glyph unicode="&#x3cd;" horiz-adv-x="1358" d="M676 -16q-272 0 -408.5 129.5t-136.5 404.5v615h391v-635q0 -114 39.5 -160.5t122.5 -46.5q99 0 141.5 75.5t42.5 251.5q0 223 -77 515h395q42 -158 58 -276.5t16 -246.5q0 -314 -143.5 -470t-440.5 -156zM551 1274q20 68 43 179.5t32 174.5h344v-26q-82 -180 -194 -361 h-225v33z" />
<glyph unicode="&#x3ce;" horiz-adv-x="1872" d="M1280 -20q-134 0 -215 54t-123 175h-12q-38 -111 -118 -170t-222 -59q-231 0 -361.5 152.5t-130.5 418.5q0 156 24 286.5t83 295.5h399q-125 -250 -125 -566q0 -151 32.5 -217.5t111.5 -66.5q76 0 101.5 52t25.5 191v275h372v-275q0 -101 11 -151t36.5 -71t79.5 -21 q73 0 108.5 67.5t35.5 210.5q0 144 -30 293t-95 279h399q59 -157 83 -293.5t24 -288.5q0 -268 -131.5 -419.5t-362.5 -151.5zM826 1274q20 68 43 179.5t32 174.5h344v-26q-82 -180 -194 -361h-225v33z" />
<glyph unicode="&#x3d1;" horiz-adv-x="1544" d="M1384 709l2 -46v-28q0 -320 -158 -487.5t-466 -167.5q-260 0 -386 82t-126 255l6 99q0 38 -14 49.5t-39 11.5q-42 0 -88 -31l-103 224q192 114 379 114q98 0 162.5 -49t64.5 -131q0 -44 -5 -87q-5 -44 -5 -73q0 -99 42.5 -136.5t137.5 -37.5q110 0 158.5 94t48.5 287v28 l-2 30q-225 2 -385.5 64t-243.5 170.5t-83 252.5q0 111 57 197.5t164.5 134t251.5 47.5q260 0 412.5 -141.5t195.5 -434.5h147v-290h-125zM979 999q-16 140 -71.5 212.5t-145.5 72.5t-90 -92q0 -83 82.5 -136.5t224.5 -56.5z" />
<glyph unicode="&#x3d2;" horiz-adv-x="1376" d="M680 936l58 121q121 251 208.5 334.5t235.5 83.5q103 0 190 -35v-287q-42 14 -76 14q-44 0 -83 -31.5t-100 -123t-119 -205t-109 -244.5v-563h-398v559l-487 903h430z" />
<glyph unicode="&#x3d6;" horiz-adv-x="2179" d="M743 -20q-238 0 -364.5 144t-126.5 411q0 160 51 307h-242v166l195 125h1862v-291h-242q51 -186 51 -307q0 -263 -127.5 -409t-365.5 -146q-124 0 -208 55t-130 174h-13q-50 -122 -134 -175.5t-206 -53.5zM684 842q-20 -49 -35.5 -134t-15.5 -163q0 -148 32 -205t111 -57 q49 0 76.5 24.5t39 74.5t11.5 169v113h373v-113q0 -132 11.5 -177.5t38 -68t75.5 -22.5q79 0 112 58.5t33 195.5q0 111 -53 305h-809z" />
<glyph unicode="&#x400;" horiz-adv-x="1124" d="M1026 0h-868v1462h868v-317h-473v-230h438v-317h-438v-276h473v-322zM607 1579q-69 44 -203.5 138.5t-228.5 168.5v21h430q52 -70 203 -233l59 -66v-29h-260z" />
<glyph unicode="&#x401;" horiz-adv-x="1124" d="M1026 0h-868v1462h868v-317h-473v-230h438v-317h-438v-276h473v-322zM181 1751q0 75 46 116.5t124 41.5q79 0 125.5 -42.5t46.5 -115.5q0 -71 -46.5 -113.5t-125.5 -42.5q-78 0 -124 41t-46 115zM660 1751q0 75 46 116.5t126 41.5t126.5 -43t46.5 -115 q0 -71 -46.5 -113.5t-126.5 -42.5q-81 0 -126.5 41.5t-45.5 114.5z" />
<glyph unicode="&#x402;" horiz-adv-x="1696" d="M1167 -20q-131 0 -194 28v305q66 -30 135 -30q94 0 94 102v139q0 109 -121 109h-276v-633h-397v1139h-357v323h1147v-323h-393v-183h287q245 0 375 -108.5t130 -302.5v-121q0 -444 -430 -444z" />
<glyph unicode="&#x403;" horiz-adv-x="1184" d="M1133 1462v-319h-578v-1143h-397v1462h975zM436 1579v29q154 165 195.5 213t68.5 86h428v-21q-80 -64 -220 -163t-212 -144h-260z" />
<glyph unicode="&#x404;" horiz-adv-x="1405" d="M836 1157q-276 0 -322 -278h584v-318h-584q14 -124 99 -191t231 -67q89 0 188 21t258 71v-327q-122 -49 -223.5 -68.5t-237.5 -19.5q-350 0 -537.5 193t-187.5 554q0 223 91.5 395t262.5 265.5t400 93.5q130 0 247 -26.5t238 -84.5l-135 -319q-187 106 -372 106z" />
<glyph unicode="&#x405;" horiz-adv-x="1182" d="M1114 444q0 -136 -69 -241.5t-199 -164t-305 -58.5q-146 0 -245 20.5t-206 71.5v352q113 -58 235 -90.5t224 -32.5q88 0 129 30.5t41 78.5q0 30 -16.5 52.5t-53 45.5t-194.5 94q-143 65 -214.5 126t-106 140t-34.5 187q0 202 147 315t404 113q227 0 463 -105l-121 -305 q-205 94 -354 94q-77 0 -112 -27t-35 -67q0 -43 44.5 -77t241.5 -124q189 -85 262.5 -182.5t73.5 -245.5z" />
<glyph unicode="&#x406;" horiz-adv-x="713" d="M158 0v1462h397v-1462h-397z" />
<glyph unicode="&#x407;" horiz-adv-x="713" d="M158 0v1462h397v-1462h-397zM-55 1751q0 75 46 116.5t124 41.5q79 0 125.5 -42.5t46.5 -115.5q0 -71 -46.5 -113.5t-125.5 -42.5q-78 0 -124 41t-46 115zM424 1751q0 75 46 116.5t126 41.5t126.5 -43t46.5 -115q0 -71 -46.5 -113.5t-126.5 -42.5q-81 0 -126.5 41.5 t-45.5 114.5z" />
<glyph unicode="&#x408;" horiz-adv-x="721" d="M43 -459q-108 0 -205 21v307q32 -6 68 -13.5t78 -7.5q98 0 140 59t42 202v1353h397v-1319q0 -297 -130 -449.5t-390 -152.5z" />
<glyph unicode="&#x409;" horiz-adv-x="2111" d="M727 1139q-23 -249 -61.5 -507t-73.5 -362t-88.5 -165.5t-132.5 -93t-191 -31.5q-85 0 -155 22v305q60 -20 98 -20q52 0 79.5 43.5t50.5 148t64 388t76 595.5h969v-520h49q306 0 466.5 -115.5t160.5 -341.5q0 -232 -159 -358.5t-454 -126.5h-460v1139h-238zM1362 305h45 q231 0 231 172q0 166 -233 166h-43v-338z" />
<glyph unicode="&#x40a;" horiz-adv-x="2066" d="M920 596h-365v-596h-397v1462h397v-542h365v542h397v-520h49q306 0 466.5 -115.5t160.5 -341.5q0 -232 -159 -358.5t-454 -126.5h-460v596zM1317 305h45q231 0 231 172q0 166 -233 166h-43v-338z" />
<glyph unicode="&#x40b;" horiz-adv-x="1704" d="M1202 524q0 109 -121 109h-276v-633h-397v1139h-357v323h1147v-323h-393v-183h287q245 0 375 -108.5t130 -302.5v-545h-395v524z" />
<glyph unicode="&#x40c;" horiz-adv-x="1427" d="M1436 0h-447l-434 741v-741h-397v1462h397v-708l418 708h434l-451 -698zM577 1579v29q154 165 195.5 213t68.5 86h428v-21q-80 -64 -220 -163t-212 -144h-260z" />
<glyph unicode="&#x40d;" horiz-adv-x="1731" d="M158 1462h352v-628q0 -100 -16 -400h8l583 1028h488v-1462h-350v612q0 139 18 416h-8l-588 -1028h-487v1462zM780 1579q-69 44 -203.5 138.5t-228.5 168.5v21h430q52 -70 203 -233l59 -66v-29h-260z" />
<glyph unicode="&#x40e;" horiz-adv-x="1395" d="M346 -20q-140 0 -256 30v314q94 -37 238 -37q62 0 104.5 28.5t69.5 100.5l-477 1046h426l180 -446q10 -26 24.5 -62t28.5 -74.5t26 -76.5t19 -66h14q34 136 101 318l149 407h426l-444 -1026q-83 -192 -163 -282.5t-191.5 -132t-274.5 -41.5zM715 1579q-239 0 -357.5 93 t-132.5 288h326q5 -98 43 -142t121 -44q150 0 164 186h331q-41 -381 -495 -381z" />
<glyph unicode="&#x40f;" horiz-adv-x="1516" d="M1358 0h-408v-455h-385v455h-407v1462h397v-1138h406v1138h397v-1462z" />
<glyph unicode="&#x410;" horiz-adv-x="1487" d="M1055 0l-72 274h-475l-74 -274h-434l477 1468h527l483 -1468h-432zM901 598l-63 240q-22 80 -53.5 207t-41.5 182q-9 -51 -35.5 -168t-117.5 -461h311z" />
<glyph unicode="&#x411;" horiz-adv-x="1325" d="M1239 475q0 -230 -157.5 -352.5t-454.5 -122.5h-469v1462h962v-317h-565v-223h57q307 0 467 -111.5t160 -335.5zM555 305h53q124 0 178 41t54 121t-57.5 118t-176.5 38h-51v-318z" />
<glyph unicode="&#x412;" horiz-adv-x="1380" d="M158 1462h510q298 0 442.5 -88.5t144.5 -275.5q0 -123 -63 -210t-166 -112v-10q136 -36 197 -120t61 -218q0 -199 -149.5 -313.5t-407.5 -114.5h-569v1462zM553 901h119q85 0 131.5 35t46.5 104q0 123 -186 123h-111v-262zM553 612v-307h139q185 0 185 156 q0 73 -49.5 112t-143.5 39h-131z" />
<glyph unicode="&#x413;" horiz-adv-x="1184" d="M1133 1462v-319h-578v-1143h-397v1462h975z" />
<glyph unicode="&#x414;" horiz-adv-x="1667" d="M1630 -455h-385v455h-852v-455h-385v779h121q131 222 216 513.5t110 624.5h975v-1138h200v-779zM1032 324v815h-260q-41 -428 -225 -815h485z" />
<glyph unicode="&#x415;" horiz-adv-x="1124" d="M1026 0h-868v1462h868v-317h-473v-230h438v-317h-438v-276h473v-322z" />
<glyph unicode="&#x416;" horiz-adv-x="2101" d="M455 764l-426 698h426l405 -708v708h381v-708l408 708h426l-430 -698l464 -764h-436l-432 741v-741h-381v741l-432 -741h-436z" />
<glyph unicode="&#x417;" horiz-adv-x="1364" d="M1212 1120q0 -289 -344 -348v-8q198 -17 299 -106t101 -240q0 -132 -73.5 -231.5t-212.5 -153t-329 -53.5q-349 0 -557 79v340q85 -43 216.5 -69.5t238.5 -26.5q169 0 240 35t71 117q0 147 -336 147h-172v320h154q116 0 181.5 11.5t95.5 37.5t30 78q0 110 -211 110 q-199 0 -350 -102l-166 272q131 84 266 119t326 35q241 0 386.5 -100t145.5 -263z" />
<glyph unicode="&#x418;" horiz-adv-x="1731" d="M158 1462h352v-628q0 -100 -16 -400h8l583 1028h488v-1462h-350v612q0 139 18 416h-8l-588 -1028h-487v1462z" />
<glyph unicode="&#x419;" horiz-adv-x="1731" d="M158 1462h352v-628q0 -100 -16 -400h8l583 1028h488v-1462h-350v612q0 139 18 416h-8l-588 -1028h-487v1462zM862 1579q-239 0 -357.5 93t-132.5 288h326q5 -98 43 -142t121 -44q150 0 164 186h331q-41 -381 -495 -381z" />
<glyph unicode="&#x41a;" horiz-adv-x="1427" d="M1436 0h-447l-434 741v-741h-397v1462h397v-708l418 708h434l-451 -698z" />
<glyph unicode="&#x41b;" horiz-adv-x="1561" d="M1403 0h-397v1139h-279q-23 -249 -61.5 -507t-73.5 -362t-88.5 -165.5t-132.5 -93t-191 -31.5q-85 0 -155 22v305q60 -20 98 -20q52 0 79.5 43.5t50.5 148t64 388t76 595.5h1010v-1462z" />
<glyph unicode="&#x41c;" horiz-adv-x="1980" d="M795 0l-299 1053h-9q21 -269 21 -418v-635h-350v1462h526l305 -1038h8l299 1038h527v-1462h-363v641q0 50 1.5 111t13.5 299h-9l-295 -1051h-376z" />
<glyph unicode="&#x41d;" horiz-adv-x="1569" d="M1411 0h-397v596h-459v-596h-397v1462h397v-542h459v542h397v-1462z" />
<glyph unicode="&#x41e;" horiz-adv-x="1632" d="M1526 733q0 -369 -181 -561t-530 -192q-344 0 -527.5 193t-183.5 562q0 365 182.5 557.5t530.5 192.5q349 0 529 -191t180 -561zM520 733q0 -424 295 -424q150 0 222.5 103t72.5 321q0 219 -73.5 323.5t-219.5 104.5q-297 0 -297 -428z" />
<glyph unicode="&#x41f;" horiz-adv-x="1513" d="M1356 0h-398v1139h-403v-1139h-397v1462h1198v-1462z" />
<glyph unicode="&#x420;" horiz-adv-x="1294" d="M1219 997q0 -245 -144.5 -378.5t-410.5 -133.5h-111v-485h-395v1462h506q277 0 416 -121t139 -344zM553 807h72q89 0 141.5 50t52.5 138q0 148 -164 148h-102v-336z" />
<glyph unicode="&#x421;" horiz-adv-x="1329" d="M809 1159q-141 0 -220 -115.5t-79 -318.5q0 -422 321 -422q97 0 188 27t183 65v-334q-183 -81 -414 -81q-331 0 -507.5 192t-176.5 555q0 227 85.5 399t246 264.5t377.5 92.5q237 0 453 -103l-121 -311q-81 38 -162 64t-174 26z" />
<glyph unicode="&#x422;" horiz-adv-x="1210" d="M803 0h-395v1139h-357v323h1108v-323h-356v-1139z" />
<glyph unicode="&#x423;" horiz-adv-x="1395" d="M346 -20q-140 0 -256 30v314q94 -37 238 -37q62 0 104.5 28.5t69.5 100.5l-477 1046h426l180 -446q10 -26 24.5 -62t28.5 -74.5t26 -76.5t19 -66h14q34 136 101 318l149 407h426l-444 -1026q-83 -192 -163 -282.5t-191.5 -132t-274.5 -41.5z" />
<glyph unicode="&#x424;" horiz-adv-x="1831" d="M725 1483h381v-180h29q188 0 328.5 -69t216 -194t75.5 -284q0 -166 -74 -290.5t-217 -192.5t-346 -68h-12v-225h-381v225h-20q-202 0 -343.5 66.5t-213.5 190t-72 296.5q0 163 76.5 289.5t214 191t321.5 64.5h37v180zM1106 504h12q126 0 189 62t63 192q0 114 -65 178.5 t-183 64.5h-16v-497zM725 1001h-23q-117 0 -179 -62t-62 -181q0 -135 60.5 -194.5t183.5 -59.5h20v497z" />
<glyph unicode="&#x425;" horiz-adv-x="1481" d="M1475 0h-457l-285 457l-282 -457h-447l485 748l-456 714h438l264 -452l254 452h451l-463 -745z" />
<glyph unicode="&#x426;" horiz-adv-x="1702" d="M1358 324h307v-779h-385v455h-1122v1462h397v-1138h406v1138h397v-1138z" />
<glyph unicode="&#x427;" horiz-adv-x="1554" d="M1397 0h-398v541q-253 -88 -452 -88q-208 0 -324.5 102.5t-116.5 288.5v618h398v-487q0 -107 43 -153t137 -46q128 0 315 68v618h398v-1462z" />
<glyph unicode="&#x428;" horiz-adv-x="2228" d="M2071 0h-1913v1462h397v-1138h365v1138h389v-1138h364v1138h398v-1462z" />
<glyph unicode="&#x429;" horiz-adv-x="2415" d="M158 0v1462h397v-1138h365v1138h389v-1138h364v1138h398v-1138h307v-779h-385v455h-1835z" />
<glyph unicode="&#x42a;" horiz-adv-x="1563" d="M1489 485q0 -234 -159.5 -359.5t-452.5 -125.5h-469v1139h-357v323h754v-520h57q306 0 466.5 -115.5t160.5 -341.5zM805 305h53q232 0 232 172q0 166 -234 166h-51v-338z" />
<glyph unicode="&#x42b;" horiz-adv-x="1890" d="M1202 485q0 -234 -159.5 -359.5t-452.5 -125.5h-432v1462h397v-520h20q306 0 466.5 -115.5t160.5 -341.5zM555 305h16q232 0 232 172q0 166 -234 166h-14v-338zM1733 0h-398v1462h398v-1462z" />
<glyph unicode="&#x42c;" d="M1202 485q0 -234 -159.5 -359.5t-452.5 -125.5h-432v1462h397v-520h20q306 0 466.5 -115.5t160.5 -341.5zM555 303h18q232 0 232 172q0 164 -234 164h-16v-336z" />
<glyph unicode="&#x42d;" horiz-adv-x="1372" d="M553 1157q-72 0 -173 -25t-183 -65l-115 309q136 59 251 82t234 23q334 0 516.5 -194.5t182.5 -551.5q0 -369 -181.5 -562t-529.5 -193q-259 0 -463 83v332q238 -92 463 -92q134 0 209 66t84 192h-584v318h584q-9 134 -86.5 206t-208.5 72z" />
<glyph unicode="&#x42e;" horiz-adv-x="2204" d="M2097 733q0 -371 -169 -562t-492 -191q-576 0 -637 616h-244v-596h-397v1462h397v-542h250q78 565 633 565q324 0 491.5 -191t167.5 -561zM1190 733q0 -424 246 -424q124 0 184.5 103t60.5 321q0 428 -243 428q-248 0 -248 -428z" />
<glyph unicode="&#x42f;" horiz-adv-x="1391" d="M717 532l-289 -532h-448l401 639q-111 62 -170 163.5t-59 227.5q0 432 596 432h485v-1462h-395v532h-121zM838 1163h-84q-95 0 -149 -38t-54 -113q0 -91 51.5 -137t161.5 -46h74v334z" />
<glyph unicode="&#x430;" d="M874 0l-75 150h-8q-79 -98 -161 -134t-212 -36q-160 0 -252 96t-92 270q0 181 126 269.5t365 99.5l189 6v16q0 140 -138 140q-124 0 -315 -84l-113 258q198 102 500 102q218 0 337.5 -108t119.5 -302v-743h-271zM584 256q71 0 121.5 45t50.5 117v88l-90 -4 q-193 -7 -193 -142q0 -104 111 -104z" />
<glyph unicode="&#x431;" horiz-adv-x="1335" d="M88 678q0 172 30.5 310.5t100 241t181 171.5t268.5 105.5t542 68.5l37 -324q-116 -9 -316 -30.5t-265.5 -42.5t-106 -56.5t-60 -89t-24.5 -139.5h17q35 70 119 117t188 47q212 0 327 -125.5t115 -362.5q0 -277 -153.5 -433t-425.5 -156q-268 0 -421 184t-153 514z M682 270q162 0 162 256q0 252 -148 252q-58 0 -124 -46.5t-87 -94.5q0 -164 53 -265.5t144 -101.5z" />
<glyph unicode="&#x432;" horiz-adv-x="1372" d="M1245 840q0 -99 -58 -164t-159 -82v-8q122 -14 187 -83.5t65 -178.5q0 -324 -528 -324h-617v1133h619q247 0 369 -72t122 -221zM883 362q0 53 -36 76t-104 23h-217v-205h213q144 0 144 106zM856 788q0 89 -108 89h-222v-170h207q62 0 92.5 23t30.5 58z" />
<glyph unicode="&#x433;" horiz-adv-x="1026" d="M977 1133v-291h-451v-842h-391v1133h842z" />
<glyph unicode="&#x434;" horiz-adv-x="1483" d="M1458 -416h-342v416h-749v-416h-342v707h100q87 148 146.5 369.5t82.5 472.5h936v-842h168v-707zM899 291v551h-223q-18 -135 -49 -263t-90 -288h362z" />
<glyph unicode="&#x435;" horiz-adv-x="1266" d="M682 -20q-283 0 -439.5 150.5t-156.5 428.5q0 287 145 440.5t414 153.5q256 0 395.5 -133.5t139.5 -384.5v-174h-699q4 -95 69.5 -149t178.5 -54q103 0 189.5 19.5t187.5 66.5v-281q-92 -47 -190 -65t-234 -18zM659 887q-69 0 -115.5 -43.5t-54.5 -136.5h336 q-2 82 -46.5 131t-119.5 49z" />
<glyph unicode="&#x436;" horiz-adv-x="1987" d="M803 584v549h381v-549l352 549h420l-383 -539l422 -594h-426l-385 575v-575h-381v575l-385 -575h-426l422 594l-383 539h420z" />
<glyph unicode="&#x437;" horiz-adv-x="1135" d="M436 715q117 0 168 20t51 64q0 75 -149 75q-145 0 -303 -71l-111 264q121 50 219.5 68t210.5 18q243 0 372.5 -79.5t129.5 -227.5q0 -91 -55.5 -157.5t-149.5 -90.5v-10q120 -16 186 -85t66 -181q0 -342 -567 -342q-125 0 -222.5 16t-209.5 63v299q193 -88 409 -88 q93 0 146 24t53 73q0 54 -47.5 74t-171.5 20h-148v254h123z" />
<glyph unicode="&#x438;" horiz-adv-x="1489" d="M483 1133v-285q0 -24 -0.5 -52t-13.5 -356l453 693h432v-1133h-348v307q0 161 14 381l-451 -688h-434v1133h348z" />
<glyph unicode="&#x439;" horiz-adv-x="1489" d="M483 1133v-285q0 -24 -0.5 -52t-13.5 -356l453 693h432v-1133h-348v307q0 161 14 381l-451 -688h-434v1133h348zM758 1241q-239 0 -357.5 93t-132.5 288h326q5 -98 43 -142t121 -44q150 0 164 186h331q-41 -381 -495 -381z" />
<glyph unicode="&#x43a;" horiz-adv-x="1384" d="M928 1133h432l-424 -543l457 -590h-447l-420 575v-575h-391v1133h391v-549z" />
<glyph unicode="&#x43b;" horiz-adv-x="1407" d="M1272 0h-391v842h-230q-33 -365 -83 -536.5t-138 -248.5t-237 -77q-104 0 -177 30v291q33 -18 88 -18q45 0 73 46.5t49.5 148.5t39 262t33.5 393h973v-1133z" />
<glyph unicode="&#x43c;" horiz-adv-x="1759" d="M1624 0h-350v846q-32 -129 -72.5 -266.5t-187.5 -579.5h-266l-117 362q-59 182 -124 409l-22 75v-846h-350v1133h535l88 -265q25 -76 69 -241.5t54 -229.5q6 47 71 266l39 134l109 336h524v-1133z" />
<glyph unicode="&#x43d;" horiz-adv-x="1362" d="M526 1133v-408h310v408h391v-1133h-391v434h-310v-434h-391v1133h391z" />
<glyph unicode="&#x43e;" horiz-adv-x="1305" d="M1217 569q0 -278 -149.5 -433.5t-418.5 -155.5q-258 0 -410.5 159t-152.5 430q0 277 149.5 430.5t419.5 153.5q167 0 295 -71t197.5 -203.5t69.5 -309.5zM483 569q0 -146 39 -222.5t131 -76.5q91 0 128.5 76.5t37.5 222.5q0 145 -38 219t-130 74q-90 0 -129 -73.5 t-39 -219.5z" />
<glyph unicode="&#x43f;" horiz-adv-x="1346" d="M1210 1133v-1133h-391v842h-293v-842h-391v1133h1075z" />
<glyph unicode="&#x440;" horiz-adv-x="1317" d="M815 -20q-86 0 -154 28.5t-135 102.5h-18q18 -119 18 -148v-455h-391v1625h318l55 -144h18q109 164 301 164q188 0 295 -156t107 -428q0 -274 -111.5 -431.5t-302.5 -157.5zM684 846q-86 0 -120.5 -61.5t-37.5 -182.5v-31q0 -146 39 -211t123 -65q75 0 109 64.5t34 213.5 q0 146 -34 209.5t-113 63.5z" />
<glyph unicode="&#x441;" horiz-adv-x="1104" d="M651 -20q-278 0 -421.5 150t-143.5 431q0 282 155 437t441 155q197 0 371 -86l-115 -289q-71 31 -131 49.5t-125 18.5q-95 0 -147 -74t-52 -209q0 -272 201 -272q172 0 330 100v-311q-151 -100 -363 -100z" />
<glyph unicode="&#x442;" horiz-adv-x="1235" d="M1186 842h-373v-842h-391v842h-373v291h1137v-291z" />
<glyph unicode="&#x443;" horiz-adv-x="1249" d="M-2 1133h412l192 -650q14 -51 19 -123h8q8 69 24 121l197 652h399l-448 -1205q-86 -230 -211.5 -325t-327.5 -95q-78 0 -160 17v307q53 -12 121 -12q52 0 91 20t68 56.5t62 119.5z" />
<glyph unicode="&#x444;" horiz-adv-x="1774" d="M1688 565q0 -246 -160 -393t-455 -172v-492h-366v492q-290 30 -455.5 179.5t-165.5 385.5q0 258 156 403.5t460 164.5v423h371v-423q293 -26 454 -176t161 -392zM473 565q0 -117 65.5 -194.5t163.5 -79.5v551q-94 -4 -161.5 -85t-67.5 -192zM1298 565q0 114 -64.5 193.5 t-160.5 83.5v-551q98 2 161.5 78.5t63.5 195.5z" />
<glyph unicode="&#x445;" horiz-adv-x="1290" d="M375 578l-346 555h444l172 -318l176 318h445l-355 -555l369 -578h-444l-191 344l-190 -344h-445z" />
<glyph unicode="&#x446;" horiz-adv-x="1559" d="M1534 -416h-342v416h-1057v1133h391v-842h363v842h391v-842h254v-707z" />
<glyph unicode="&#x447;" horiz-adv-x="1374" d="M477 1133v-398q0 -117 107 -117q114 0 264 50v465h391v-1133h-391v412q-194 -84 -359 -84q-206 0 -304.5 94.5t-98.5 292.5v418h391z" />
<glyph unicode="&#x448;" horiz-adv-x="2056" d="M1921 0h-1786v1133h391v-842h314v842h381v-842h309v842h391v-1133z" />
<glyph unicode="&#x449;" horiz-adv-x="2200" d="M1921 291h254v-707h-342v416h-1698v1133h391v-842h314v842h381v-842h309v842h391v-842z" />
<glyph unicode="&#x44a;" horiz-adv-x="1460" d="M408 0v842h-359v291h750v-408h37q199 0 321.5 -36.5t180 -112t57.5 -201.5q0 -195 -127 -285t-385 -90h-475zM1004 358q0 59 -33 85t-111 26h-61v-213h65q140 0 140 102z" />
<glyph unicode="&#x44b;" horiz-adv-x="1774" d="M1638 0h-391v1133h391v-1133zM526 1133v-408h37q295 0 427 -82t132 -268q0 -195 -127 -285t-385 -90h-475v1133h391zM731 358q0 59 -33 85t-110 26h-62v-213h66q139 0 139 102z" />
<glyph unicode="&#x44c;" horiz-adv-x="1188" d="M526 1133v-408h37q295 0 427 -82t132 -268q0 -195 -127 -285t-385 -90h-475v1133h391zM731 358q0 59 -33 85t-110 26h-62v-213h66q139 0 139 102z" />
<glyph unicode="&#x44d;" horiz-adv-x="1108" d="M451 -20q-116 0 -208 17t-173 60v293q189 -92 333 -92q103 0 162 49t60 133h-387v246h387q-4 88 -56.5 138t-136.5 50q-60 0 -133.5 -17t-136.5 -48l-111 252q96 45 210 68.5t220 23.5q253 0 397 -147.5t144 -419.5q0 -294 -148 -450t-423 -156z" />
<glyph unicode="&#x44e;" horiz-adv-x="1849" d="M1761 569q0 -280 -145 -434.5t-406 -154.5q-214 0 -355.5 119t-176.5 335h-152v-434h-391v1133h391v-408h154q38 206 177.5 317t359.5 111q162 0 285.5 -70t191 -202t67.5 -312zM1065 569q0 -154 35.5 -226.5t113.5 -72.5q82 0 116 76.5t34 222.5q0 145 -34.5 219 t-117.5 74q-80 0 -113.5 -73.5t-33.5 -219.5z" />
<glyph unicode="&#x44f;" horiz-adv-x="1247" d="M389 0h-414l291 430q-88 48 -139 136t-51 204q0 174 129.5 268.5t365.5 94.5h541v-1133h-391v393h-115zM467 758q0 -52 37 -80.5t106 -28.5h111v228h-113q-66 0 -103.5 -31t-37.5 -88z" />
<glyph unicode="&#x450;" horiz-adv-x="1266" d="M682 -20q-283 0 -439.5 150.5t-156.5 428.5q0 287 145 440.5t414 153.5q256 0 395.5 -133.5t139.5 -384.5v-174h-699q4 -95 69.5 -149t178.5 -54q103 0 189.5 19.5t187.5 66.5v-281q-92 -47 -190 -65t-234 -18zM659 887q-69 0 -115.5 -43.5t-54.5 -136.5h336 q-2 82 -46.5 131t-119.5 49zM621 1241q-69 44 -203.5 138.5t-228.5 168.5v21h430q52 -70 203 -233l59 -66v-29h-260z" />
<glyph unicode="&#x451;" horiz-adv-x="1266" d="M682 -20q-283 0 -439.5 150.5t-156.5 428.5q0 287 145 440.5t414 153.5q256 0 395.5 -133.5t139.5 -384.5v-174h-699q4 -95 69.5 -149t178.5 -54q103 0 189.5 19.5t187.5 66.5v-281q-92 -47 -190 -65t-234 -18zM659 887q-69 0 -115.5 -43.5t-54.5 -136.5h336 q-2 82 -46.5 131t-119.5 49zM252 1413q0 75 46 116.5t124 41.5q79 0 125.5 -42.5t46.5 -115.5q0 -71 -46.5 -113.5t-125.5 -42.5q-78 0 -124 41t-46 115zM731 1413q0 75 46 116.5t126 41.5t126.5 -43t46.5 -115q0 -71 -46.5 -113.5t-126.5 -42.5q-81 0 -126.5 41.5 t-45.5 114.5z" />
<glyph unicode="&#x452;" horiz-adv-x="1393" d="M1262 -92q0 -187 -109.5 -293.5t-308.5 -106.5q-49 0 -113.5 7.5t-103.5 17.5v303q60 -16 123 -16q118 0 118 170v528q0 227 -135 227q-96 0 -141 -81t-45 -269v-395h-391v1167h-156v242h156v147h391v-147h233v-242h-233v-41q0 -97 -17 -233h23q55 86 130.5 123t178.5 37 q189 0 294.5 -109t105.5 -305v-731z" />
<glyph unicode="&#x453;" horiz-adv-x="1026" d="M977 1133v-291h-451v-842h-391v1133h842zM336 1241v29q154 165 195.5 213t68.5 86h428v-21q-80 -64 -220 -163t-212 -144h-260z" />
<glyph unicode="&#x454;" horiz-adv-x="1110" d="M655 -20q-284 0 -426.5 147t-142.5 432q0 291 147.5 442.5t432.5 151.5q199 0 393 -84l-113 -264q-152 69 -287 69q-79 0 -125 -50t-53 -138h371v-246h-369q7 -90 58 -136t141 -46q156 0 342 92v-287q-158 -83 -369 -83z" />
<glyph unicode="&#x455;" horiz-adv-x="1092" d="M1010 348q0 -182 -124 -275t-356 -93q-126 0 -219 13.5t-190 49.5v313q91 -40 199.5 -66t193.5 -26q127 0 127 58q0 30 -35.5 53.5t-206.5 91.5q-156 64 -218 145.5t-62 206.5q0 158 122 246t345 88q112 0 210.5 -24.5t204.5 -71.5l-106 -252q-78 35 -165 59.5t-142 24.5 q-96 0 -96 -47q0 -29 33.5 -49.5t193.5 -83.5q119 -49 177.5 -96t86 -110.5t27.5 -154.5z" />
<glyph unicode="&#x456;" horiz-adv-x="666" d="M528 0h-391v1133h391v-1133zM127 1415q0 88 49 131t158 43t159 -44t50 -130q0 -172 -209 -172q-207 0 -207 172z" />
<glyph unicode="&#x457;" horiz-adv-x="666" d="M528 0h-391v1133h391v-1133zM-73 1413q0 75 46 116.5t124 41.5q79 0 125.5 -42.5t46.5 -115.5q0 -71 -46.5 -113.5t-125.5 -42.5q-78 0 -124 41t-46 115zM406 1413q0 75 46 116.5t126 41.5t126.5 -43t46.5 -115q0 -71 -46.5 -113.5t-126.5 -42.5q-81 0 -126.5 41.5 t-45.5 114.5z" />
<glyph unicode="&#x458;" horiz-adv-x="664" d="M106 -492q-48 0 -110.5 7.5t-99.5 17.5v305q64 -18 120 -18q119 0 119 170v1143h391v-1225q0 -187 -109.5 -293.5t-310.5 -106.5zM125 1415q0 88 49 131t158 43t159 -44t50 -130q0 -172 -209 -172q-207 0 -207 172z" />
<glyph unicode="&#x459;" horiz-adv-x="1903" d="M1278 725q295 0 427 -82t132 -268q0 -195 -127 -285t-385 -90h-475v842h-199q-33 -365 -83 -536.5t-138 -248.5t-237 -77q-104 0 -177 30v291q33 -18 88 -18q45 0 73 46.5t49.5 148.5t39 262t33.5 393h942v-408h37zM1446 358q0 59 -33 85t-110 26h-62v-213h66 q139 0 139 102z" />
<glyph unicode="&#x45a;" horiz-adv-x="1829" d="M1167 725h37q295 0 427 -82t132 -268q0 -195 -127 -285t-385 -90h-475v434h-250v-434h-391v1133h391v-408h250v408h391v-408zM1372 358q0 59 -33 85t-110 26h-62v-213h66q139 0 139 102z" />
<glyph unicode="&#x45b;" horiz-adv-x="1393" d="M156 1167h-156v242h156v147h391v-147h233v-242h-235v-41q0 -37 -5 -114t-10 -119h23q55 86 130.5 123t178.5 37q189 0 294.5 -109t105.5 -305v-639h-394v518q0 227 -135 227q-96 0 -141 -81t-45 -269v-395h-391v1167z" />
<glyph unicode="&#x45c;" horiz-adv-x="1384" d="M928 1133h432l-424 -543l457 -590h-447l-420 575v-575h-391v1133h391v-549zM528 1241v29q154 165 195.5 213t68.5 86h428v-21q-80 -64 -220 -163t-212 -144h-260z" />
<glyph unicode="&#x45d;" horiz-adv-x="1489" d="M483 1133v-285q0 -24 -0.5 -52t-13.5 -356l453 693h432v-1133h-348v307q0 161 14 381l-451 -688h-434v1133h348zM733 1241q-69 44 -203.5 138.5t-228.5 168.5v21h430q52 -70 203 -233l59 -66v-29h-260z" />
<glyph unicode="&#x45e;" horiz-adv-x="1249" d="M-2 1133h412l192 -650q14 -51 19 -123h8q8 69 24 121l197 652h399l-448 -1205q-86 -230 -211.5 -325t-327.5 -95q-78 0 -160 17v307q53 -12 121 -12q52 0 91 20t68 56.5t62 119.5zM625 1241q-239 0 -357.5 93t-132.5 288h326q5 -98 43 -142t121 -44q150 0 164 186h331 q-41 -381 -495 -381z" />
<glyph unicode="&#x45f;" horiz-adv-x="1411" d="M535 0h-400v1133h391v-842h359v842h391v-1133h-399v-416h-342v416z" />
<glyph unicode="&#x460;" horiz-adv-x="2316" d="M1575 1157q-97 0 -186 -70l-134 279q63 53 158.5 84t181.5 31q294 0 454.5 -188t160.5 -523q0 -243 -77 -421.5t-225 -273.5t-356 -95q-136 0 -227 39.5t-170 134.5q-85 -95 -184 -134.5t-250 -39.5q-190 0 -330 97.5t-213.5 276t-73.5 416.5q0 334 161 522.5t456 188.5 q81 0 179.5 -32t158.5 -83l-131 -279q-100 70 -189 70q-109 0 -173 -102.5t-64 -306.5q0 -211 76 -325t217 -114q62 0 100 20t66 46v356h389v-356q63 -66 170 -66q138 0 215 112t77 327q0 204 -64 306.5t-173 102.5z" />
<glyph unicode="&#x461;" horiz-adv-x="1817" d="M889 434h-8q-10 -59 -56 -172l-108 -262h-330l-387 1133h401l162 -570q31 -116 31 -176h8q5 71 45 170l111 272l-80 304h375l127 -592q23 -107 30 -160h11q75 157 104 324.5t29 427.5h391q0 -359 -109.5 -647.5t-318.5 -485.5h-326l-71 252q-19 83 -31 182z" />
<glyph unicode="&#x462;" horiz-adv-x="1368" d="M1294 465q0 -224 -159 -344.5t-453 -120.5h-473v1133h-217v256h217v167h397v-167h307v-256h-307v-232h62q306 0 466 -111t160 -325zM606 303h60q231 0 231 152q0 143 -233 143h-58v-295z" />
<glyph unicode="&#x463;" horiz-adv-x="1405" d="M250 1133v227h391v-227h377v-256h-377v-160h139q289 0 424 -86.5t135 -259.5q0 -189 -133 -280t-399 -91h-557v877h-250v256h250zM948 354q0 53 -38.5 80t-125.5 27h-143v-205h147q73 0 116.5 24.5t43.5 73.5z" />
<glyph unicode="&#x464;" horiz-adv-x="1962" d="M1393 1157q-259 0 -316 -237h578v-324h-586q0 -130 93 -211.5t239 -81.5q89 0 188 21t258 71v-327q-122 -49 -223.5 -68.5t-237.5 -19.5q-318 0 -501 158.5t-217 457.5h-113v-596h-397v1462h397v-542h125q55 263 249 412t486 149q130 0 246.5 -26.5t239.5 -84.5 l-136 -319q-187 106 -372 106z" />
<glyph unicode="&#x465;" horiz-adv-x="1724" d="M1284 -20q-525 0 -582 454h-176v-434h-391v1133h391v-416h181q34 220 173 328t396 108q199 0 393 -84l-113 -264q-152 69 -286 69q-85 0 -124.5 -40t-51.5 -117h368v-283h-368q8 -97 55.5 -136.5t126.5 -39.5q164 0 350 92v-287q-156 -83 -342 -83z" />
<glyph unicode="&#x466;" horiz-adv-x="1733" d="M1122 555h-82v-555h-348v555h-82l-213 -555h-407l641 1462h465l647 -1462h-406zM725 846h281l-140 360z" />
<glyph unicode="&#x467;" horiz-adv-x="1434" d="M930 1133l520 -1133h-377l-137 373h-62v-373h-313v373h-61l-140 -373h-376l514 1133h432zM608 631h221l-104 276h-10z" />
<glyph unicode="&#x468;" horiz-adv-x="2380" d="M1772 555h-82v-555h-349v555h-81l-213 -555h-408l260 596h-344v-596h-397v1462h397v-542h487l238 542h465l647 -1462h-405zM1374 846h281l-139 360z" />
<glyph unicode="&#x469;" horiz-adv-x="2048" d="M1542 1133l520 -1133h-376l-138 373h-61v-373h-313v373h-62l-139 -373h-377l197 434h-287v-434h-371v1133h371v-408h418l186 408h432zM1221 631h221l-105 276h-10z" />
<glyph unicode="&#x46a;" horiz-adv-x="1757" d="M1071 1171h-389l192 -294zM1571 1462v-174l-348 -432q104 -29 164.5 -74t108.5 -120.5t99 -208.5l172 -453h-401l-123 340q-55 158 -93.5 215t-86.5 61v-616h-369v616q-46 -2 -81.5 -52.5t-98.5 -223.5l-123 -340h-401l172 453q54 143 99 217t101 115.5t164 70.5 l-340 432v174h1385z" />
<glyph unicode="&#x46b;" horiz-adv-x="1462" d="M1311 1133v-150l-271 -334q115 -28 188.5 -99t117.5 -198l116 -352h-375l-83 307q-39 132 -115 139v-446h-316v446q-73 0 -114 -137l-84 -309h-375l109 352q81 257 315 299l-281 332v150h1168zM885 883h-316l158 -207z" />
<glyph unicode="&#x46c;" horiz-adv-x="2402" d="M2216 1462v-174l-348 -432q104 -30 165 -74.5t110 -122t98 -206.5l172 -453h-402l-123 340q-55 158 -93.5 215t-86.5 61v-616h-369v616q-46 -2 -81.5 -52.5t-98.5 -223.5l-123 -340h-401l172 453q21 59 59 143h-311v-596h-397v1462h397v-542h565l-289 368v174h1385z M1716 1171h-389l193 -294z" />
<glyph unicode="&#x46d;" horiz-adv-x="2077" d="M1925 1133v-150l-270 -334q115 -28 188.5 -98.5t116.5 -198.5l117 -352h-375l-84 307q-39 132 -115 139v-446h-315v446q-74 0 -115 -137l-84 -309h-375l109 352q10 35 33 82h-250v-434h-371v1133h371v-408h469l-217 258v150h1167zM1499 883h-315l157 -207z" />
<glyph unicode="&#x46e;" horiz-adv-x="1364" d="M1049 1794q97 0 139 -16v-187q-29 13 -82 13q-51 0 -95.5 -39.5t-90.5 -114.5q138 -42 215 -128.5t77 -201.5q0 -289 -344 -348v-8q198 -17 299 -106t101 -240q0 -203 -157 -318t-441 -120q-125 -4 -176.5 -21.5t-51.5 -62.5q0 -35 29 -49.5t98 -14.5q100 0 186 5t142 5 q66 0 113.5 -12t62.5 -31v-282q-38 34 -184 34l-207 -4l-223 -4q-191 0 -302.5 98.5t-111.5 260.5q0 200 127 298.5t379 102.5q174 2 242.5 37.5t68.5 114.5q0 73 -84 110t-252 37h-172v320h154q116 0 181.5 11.5t95.5 37.5t30 78q0 110 -211 110q-199 0 -350 -102l-166 272 q89 57 177.5 90.5t199.5 48.5q-144 177 -227 256v27h262q103 -78 198 -195q109 149 177.5 193.5t173.5 44.5z" />
<glyph unicode="&#x46f;" horiz-adv-x="1135" d="M897 1395q82 0 139 -19v-176q-34 14 -102 14q-37 0 -73 -28t-64 -70q113 -36 170 -103.5t57 -166.5q0 -91 -55.5 -157.5t-149.5 -90.5v-10q120 -16 186 -85t66 -181q0 -174 -125 -253.5t-395 -88.5q-109 -6 -149 -24.5t-40 -57.5q0 -44 36 -59t96 -15q79 0 146.5 5 t139.5 5q111 0 168 -43v-283q-17 17 -62 30t-95 13q-68 0 -163 -5t-163 -5q-229 0 -348 91.5t-119 265.5q0 170 116.5 261t336.5 99q107 3 168 31t61 78q0 54 -47.5 74t-171.5 20h-148v254h123q117 0 168 20t51 64q0 37 -37.5 56t-111.5 19q-145 0 -303 -71l-111 264 q45 19 89 33.5t87 25.5q-103 128 -170 199v27h244q121 -94 205 -195q108 145 179 191.5t171 46.5z" />
<glyph unicode="&#x470;" horiz-adv-x="1905" d="M1143 0h-381v397h-37q-326 0 -469 131.5t-143 429.5v504h389v-499q0 -126 56 -183t187 -57h17v739h381v-739h20q114 0 177 61.5t63 173.5v504h389v-477q0 -305 -145 -446.5t-465 -141.5h-39v-397z" />
<glyph unicode="&#x471;" horiz-adv-x="1831" d="M1108 1554v-1263q139 14 191.5 80t52.5 209q0 261 -90 553h376q55 -171 75 -302t20 -258q0 -273 -157.5 -423t-467.5 -166v-476h-371v476q-606 18 -606 573v576h381v-586q0 -127 51 -187t174 -69v1263h371z" />
<glyph unicode="&#x472;" horiz-adv-x="1632" d="M1526 733q0 -369 -181 -561t-530 -192q-344 0 -527.5 193t-183.5 562q0 365 182.5 557.5t530.5 192.5q349 0 529 -191t180 -561zM815 289q290 0 328 319h-656q42 -319 328 -319zM817 1182q-267 0 -323 -283h643q-51 283 -320 283z" />
<glyph unicode="&#x473;" horiz-adv-x="1305" d="M1217 569q0 -278 -149.5 -433.5t-418.5 -155.5q-258 0 -410.5 159t-152.5 430q0 277 149.5 430.5t419.5 153.5q167 0 295 -71t197.5 -203.5t69.5 -309.5zM651 879q-166 0 -190 -207h383q-14 101 -59 154t-134 53zM653 254q85 0 130 50t59 147h-381q15 -97 60.5 -147 t131.5 -50z" />
<glyph unicode="&#x474;" horiz-adv-x="1530" d="M1278 1483q57 0 122.5 -12t104.5 -31v-301q-38 20 -100 20q-53 0 -81.5 -33t-49.5 -104l-311 -1022h-465l-498 1462h444l215 -768q16 -58 38.5 -166.5t25.5 -165.5q6 58 29.5 162t40.5 166l92 395q40 165 87.5 244t121.5 116.5t184 37.5z" />
<glyph unicode="&#x475;" horiz-adv-x="1305" d="M819 0h-387l-432 1133h408l192 -670q1 -5 4 -17t5.5 -28.5t4.5 -35t2 -34.5h9q0 52 18 113l113 350q48 146 92 215t104 98t156 29q41 0 91 -9t85 -24v-284q-40 14 -82 14q-41 0 -64 -22t-42 -74z" />
<glyph unicode="&#x476;" horiz-adv-x="1530" d="M1278 1483q57 0 122.5 -12t104.5 -31v-301q-38 20 -100 20q-53 0 -81.5 -33t-49.5 -104l-311 -1022h-465l-498 1462h444l215 -768q16 -58 38.5 -166.5t25.5 -165.5q6 58 29.5 162t40.5 166l92 395q40 165 87.5 244t121.5 116.5t184 37.5zM918 1579q-83 65 -184 162 t-130 145v21h342q34 -75 83.5 -158.5t90.5 -140.5v-29h-202zM494 1579q-83 65 -184 163.5t-128 143.5v21h342q32 -70 82.5 -158t89.5 -141v-29h-202z" />
<glyph unicode="&#x477;" horiz-adv-x="1305" d="M819 0h-387l-432 1133h408l192 -670q1 -5 4 -17t5.5 -28.5t4.5 -35t2 -34.5h9q0 52 18 113l113 350q48 146 92 215t104 98t156 29q41 0 91 -9t85 -24v-284q-40 14 -82 14q-41 0 -64 -22t-42 -74zM840 1241q-83 65 -184 162t-130 145v21h342q34 -75 83.5 -158.5 t90.5 -140.5v-29h-202zM416 1241q-83 65 -184 163.5t-128 143.5v21h342q32 -70 82.5 -158t89.5 -141v-29h-202z" />
<glyph unicode="&#x478;" horiz-adv-x="2882" d="M1526 733q0 -369 -181 -561t-530 -192q-344 0 -527.5 193t-183.5 562q0 365 182.5 557.5t530.5 192.5q349 0 529 -191t180 -561zM520 733q0 -424 295 -424q150 0 222.5 103t72.5 321q0 219 -73.5 323.5t-219.5 104.5q-297 0 -297 -428zM1630 1133h412l192 -650 q14 -51 19 -123h8q8 69 24 121l197 652h399l-448 -1205q-86 -230 -211.5 -325t-327.5 -95q-78 0 -160 17v307q53 -12 121 -12q52 0 91 20t68 56.5t62 119.5z" />
<glyph unicode="&#x479;" horiz-adv-x="2513" d="M1217 569q0 -278 -149.5 -433.5t-418.5 -155.5q-258 0 -410.5 159t-152.5 430q0 277 149.5 430.5t419.5 153.5q167 0 295 -71t197.5 -203.5t69.5 -309.5zM483 569q0 -146 39 -222.5t131 -76.5q91 0 128.5 76.5t37.5 222.5q0 145 -38 219t-130 74q-90 0 -129 -73.5 t-39 -219.5zM1262 1133h412l192 -650q14 -51 19 -123h8q8 69 24 121l197 652h399l-448 -1205q-86 -230 -211.5 -325t-327.5 -95q-78 0 -160 17v307q53 -12 121 -12q52 0 91 20t68 56.5t62 119.5z" />
<glyph unicode="&#x47a;" horiz-adv-x="1714" d="M1608 733q0 -329 -153 -518t-447 -225q-33 -117 -148 -117q-60 0 -97 27.5t-54 89.5q-295 36 -450 226t-155 519q0 326 154 514t451 226q17 61 54 86.5t97 25.5q56 0 92.5 -25.5t55.5 -86.5q299 -38 449.5 -227.5t150.5 -514.5zM520 733q0 -325 197 -401q42 96 139 96 q101 0 143 -96q105 40 149 143.5t44 257.5q0 325 -191 402q-36 -103 -145 -103q-102 0 -143 103q-193 -78 -193 -402z" />
<glyph unicode="&#x47b;" horiz-adv-x="1438" d="M1350 569q0 -245 -129.5 -391t-364.5 -178q-9 -54 -46 -86.5t-93 -32.5q-54 0 -91 33t-48 86q-234 36 -363 185.5t-129 383.5q0 239 128 385.5t364 178.5q9 54 47 86t94 32q52 0 90 -33t47 -85q233 -36 363.5 -184.5t130.5 -379.5zM483 569q0 -209 95 -278 q9 54 46.5 86.5t94.5 32.5q52 0 90 -33.5t47 -85.5q96 72 96 278q0 201 -96 273q-8 -54 -45.5 -86.5t-93.5 -32.5q-53 0 -90.5 33t-48.5 84q-95 -74 -95 -271z" />
<glyph unicode="&#x47c;" horiz-adv-x="2316" d="M1589 2179v-242h-16q-87 0 -151.5 8.5t-115.5 22.5t-126 48q-63 28 -101 28q-46 0 -71 -28.5t-25 -78.5h-219v62q0 161 72 232t211 71q67 0 129 -19t124.5 -42.5t129.5 -42.5t145 -19h14zM1575 1157q-97 0 -186 -70l-134 279q63 53 158.5 84t181.5 31q294 0 454.5 -188 t160.5 -523q0 -243 -77 -421.5t-225 -273.5t-356 -95q-136 0 -227 39.5t-170 134.5q-85 -95 -184 -134.5t-250 -39.5q-190 0 -330 97.5t-213.5 276t-73.5 416.5q0 334 161 522.5t456 188.5q81 0 179.5 -32t158.5 -83l-131 -279q-100 70 -189 70q-109 0 -173 -102.5 t-64 -306.5q0 -211 76 -325t217 -114q62 0 100 20t66 46v356h389v-356q27 -34 65.5 -50t104.5 -16q138 0 215 112t77 327q0 204 -64 306.5t-173 102.5zM1368 1751q0 -120 -94.5 -188t-259.5 -68v102q59 4 86.5 29t27.5 53q0 46 -66 60q-67 13 -67 71q0 57 50 91t137 34 q91 0 138.5 -51t47.5 -133z" />
<glyph unicode="&#x47d;" horiz-adv-x="1853" d="M1260 -20q-114 0 -197 40.5t-135 100.5q-136 -141 -336 -141q-284 0 -417.5 153.5t-133.5 456.5q0 279 132.5 421t404.5 142q164 0 303 -61l-103 -269q-72 39 -153 39q-97 0 -142 -65t-45 -207q0 -150 49.5 -235t137.5 -85q167 0 301 170q130 -170 301 -170 q87 0 137.5 84.5t50.5 235.5q0 142 -45 207t-143 65q-74 0 -152 -39l-104 269q137 61 305 61q536 0 536 -563q0 -303 -133.5 -456.5t-418.5 -153.5zM1139 1432q0 -120 -94.5 -188t-260.5 -68v102q58 3 86.5 28.5t28.5 53.5q0 46 -66 60q-67 13 -67 71t49.5 91.5t136.5 33.5 q86 0 136.5 -49t50.5 -135zM1360 1860v-242h-17q-208 0 -333 53l-59 26q-64 27 -101 27q-47 0 -71.5 -28.5t-24.5 -77.5h-219v61q0 161 72 232t210 71q67 0 129 -19t124.5 -42t130 -42t145.5 -19h14z" />
<glyph unicode="&#x47e;" horiz-adv-x="2316" d="M1573 1860v-127l-82 -172h-70l-49 102h-133l-49 -102h-70l-49 102h-133l-49 -102h-70l-80 172v127h834zM1575 1157q-97 0 -186 -70l-134 279q63 53 158.5 84t181.5 31q294 0 454.5 -188t160.5 -523q0 -243 -77 -421.5t-225 -273.5t-356 -95q-136 0 -227 39.5t-170 134.5 q-85 -95 -184 -134.5t-250 -39.5q-190 0 -330 97.5t-213.5 276t-73.5 416.5q0 334 161 522.5t456 188.5q81 0 179.5 -32t158.5 -83l-131 -279q-100 70 -189 70q-109 0 -173 -102.5t-64 -306.5q0 -211 76 -325t217 -114q62 0 100 20t66 46v356h389v-356q27 -34 65.5 -50 t104.5 -16q138 0 215 112t77 327q0 204 -64 306.5t-173 102.5z" />
<glyph unicode="&#x47f;" horiz-adv-x="1817" d="M1305 1489v-127l-82 -172h-70l-49 102h-133l-49 -102h-70l-49 102h-133l-49 -102h-70l-80 172v127h834zM889 434h-8q-10 -59 -56 -172l-108 -262h-330l-387 1133h401l162 -570q31 -116 31 -176h8q5 66 45 170l107 283l-76 293h375l131 -611q14 -47 26 -141h11 q75 157 104 324.5t29 427.5h391q0 -359 -109.5 -647.5t-318.5 -485.5h-326l-71 252q-19 83 -31 182z" />
<glyph unicode="&#x480;" horiz-adv-x="1360" d="M1239 -492h-397v474l-27 -2h-27q-331 0 -507.5 192t-176.5 555q0 227 85.5 399t246 264.5t377.5 92.5q237 0 453 -103l-121 -311q-81 38 -162 64t-174 26q-141 0 -220 -115.5t-79 -318.5q0 -422 321 -422q115 0 215 27t193 65v-887z" />
<glyph unicode="&#x481;" horiz-adv-x="1114" d="M623 -492v472q-265 9 -401 157.5t-136 423.5q0 282 155 437t441 155q197 0 371 -86l-115 -289q-71 31 -131 49.5t-125 18.5q-95 0 -147 -74t-52 -209q0 -272 201 -272q172 0 330 100v-883h-391z" />
<glyph unicode="&#x482;" horiz-adv-x="1200" d="M651 453l226 -134l-129 -219l-224 129l-139 -235l-231 133l137 235l-240 142l127 219l244 -139l141 247l-241 142l129 221l239 -139l137 235l230 -133l-135 -235l227 -131l-131 -220l-221 129z" />
<glyph unicode="&#x483;" horiz-adv-x="1110" d="M391 1231q-8 -48 -42.5 -67t-90.5 -19q-60 0 -97.5 45t-37.5 108q0 168 166 168h430q5 41 41.5 63.5t89.5 22.5q137 0 137 -149q0 -172 -168 -172h-428z" />
<glyph unicode="&#x484;" horiz-adv-x="1149" d="M233 1473q78 0 145.5 19t130 42t124 42t129.5 19q138 0 210 -71t72 -232v-61h-219q0 49 -24.5 77.5t-71.5 28.5q-37 0 -100 -27l-60 -26q-125 -53 -333 -53h-17v242h14z" />
<glyph unicode="&#x485;" horiz-adv-x="1104" d="M406 1462q0 82 47.5 133.5t138.5 51.5q87 0 136.5 -34t49.5 -91t-66 -72q-36 -8 -51.5 -21.5t-15.5 -37.5q0 -34 32.5 -57t82.5 -25v-103q-166 0 -260 68t-94 188z" />
<glyph unicode="&#x486;" horiz-adv-x="1102" d="M760 1462q0 -120 -94.5 -188t-259.5 -68v103q58 3 86 28.5t28 53.5q0 24 -15.5 37.5t-50.5 21.5q-67 15 -67 72t50 91t136 34t136.5 -49t50.5 -136z" />
<glyph unicode="&#x488;" horiz-adv-x="2017" d="M1001 1425q106 0 171 -57t69 -149h-115q-3 34 -28.5 49.5t-96.5 15.5q-119 0 -122 -65h-119q4 89 72.5 147.5t168.5 58.5zM1001 -113q106 0 171 -57t69 -149h-115q-3 34 -28.5 49.5t-96.5 15.5q-60 0 -90.5 -16.5t-31.5 -48.5h-119q4 89 72.5 147.5t168.5 58.5zM1593 166 q105 0 170.5 -56.5t69.5 -150.5h-115q-3 33 -28.5 49.5t-96.5 16.5q-57 0 -88.5 -17.5t-34.5 -48.5h-118q4 89 72 148t169 59zM426 166q104 0 169 -56t71 -151h-115q-3 33 -28.5 49.5t-96.5 16.5q-57 0 -89 -17.5t-34 -48.5h-119q4 90 73.5 148.5t168.5 58.5zM1593 1141 q105 0 170.5 -56.5t69.5 -150.5h-115q-3 34 -28.5 49.5t-96.5 15.5q-59 0 -89.5 -16.5t-33.5 -48.5h-118q4 89 72 148t169 59zM426 1141q104 0 169 -56t71 -151h-115q-3 34 -28.5 49.5t-96.5 15.5q-60 0 -91 -16.5t-32 -48.5h-119q4 90 73.5 148.5t168.5 58.5zM1741 659 q106 0 170.5 -56.5t68.5 -149.5h-114q-3 34 -28.5 49.5t-96.5 15.5q-60 0 -91 -16.5t-32 -48.5h-119q4 90 73.5 148t168.5 58zM279 659q106 0 170.5 -56.5t68.5 -149.5h-115q-3 35 -28.5 50t-95.5 15q-60 0 -91 -16.5t-32 -48.5h-119q4 89 72.5 147.5t169.5 58.5z" />
<glyph unicode="&#x489;" horiz-adv-x="1950" d="M1126 -49q-21 -81 -51.5 -165t-70.5 -171h-179q53 221 70 350h221zM825 1155q19 71 55.5 171t67.5 165h178q-50 -211 -69 -350h-221zM1577 702q83 -22 167 -52.5t169 -69.5v-179q-221 53 -350 70v221zM373 401q-66 17 -161.5 52t-174.5 71v178q211 -50 350 -69v-221z M1620 1214l125 -124q-50 -31 -147.5 -96t-149.5 -103l-156 156l2 18q134 79 326 149zM332 -152l-125 127q44 26 139 89t156 110l157 -158l-4 -16q-72 -43 -164 -85t-159 -67zM291 1176l127 124q91 -153 198 -294l-157 -158l-17 4q-81 138 -151 324zM1657 -113l-125 -125 q-53 84 -102.5 158t-96.5 139l156 156l18 -2q42 -75 79.5 -156.5t70.5 -169.5z" />
<glyph unicode="&#x48a;" horiz-adv-x="1905" d="M158 1462h352v-628q0 -100 -16 -400h8l583 1028h488v-1138h315l-190 -779h-436l200 455h-239v612q0 139 18 416h-8l-588 -1028h-487v1462zM862 1579q-242 0 -359 94.5t-130 286.5h325q5 -94 42 -140t122 -46q77 0 116.5 46t47.5 140h332q-41 -381 -496 -381z" />
<glyph unicode="&#x48b;" horiz-adv-x="1624" d="M483 1133v-285q0 -24 -0.5 -52t-13.5 -356l453 693h432v-861h258l-156 -688h-364l145 416h-231v307q0 161 14 381l-451 -688h-434v1133h348zM758 1241q-239 0 -357.5 93t-132.5 288h326q5 -98 43 -142t121 -44q150 0 164 186h331q-41 -381 -495 -381z" />
<glyph unicode="&#x48c;" horiz-adv-x="1368" d="M1294 465q0 -224 -159 -344.5t-453 -120.5h-473v1038h-217v256h217v168h397v-168h307v-256h-307v-137h62q306 0 466 -111t160 -325zM606 303h60q231 0 231 152q0 143 -233 143h-58v-295z" />
<glyph unicode="&#x48d;" horiz-adv-x="1303" d="M147 1370v186h392v-186h376v-256h-376v-397h139q289 0 424 -86.5t135 -259.5q0 -189 -133 -280t-399 -91h-558v1114h-147v256h147zM846 354q0 53 -38.5 80t-125.5 27h-143v-205h147q72 0 116 24.5t44 73.5z" />
<glyph unicode="&#x48e;" horiz-adv-x="1376" d="M895 498q-63 -13 -150 -13h-192v-485h-395v1462h587q278 0 416.5 -121t138.5 -344q0 -142 -49.5 -248t-144.5 -169l92 -134l-180 -127zM553 772h147l-104 156l180 129l109 -162q16 44 16 104q0 177 -164 177h-184v-404z" />
<glyph unicode="&#x48f;" horiz-adv-x="1366" d="M891 -16l-55 -4q-92 0 -166.5 29.5t-143.5 101.5h-18q18 -119 18 -148v-455h-391v1625h318l55 -144h18q114 164 324 164q201 0 314.5 -157t113.5 -427q0 -170 -45 -291.5t-123 -193.5l90 -143l-203 -127zM709 848q-94 0 -137.5 -58t-45.5 -188v-31q0 -159 43.5 -227 t139.5 -70l-125 199l204 129l91 -145q8 69 8 116q0 144 -42.5 209.5t-135.5 65.5z" />
<glyph unicode="&#x490;" horiz-adv-x="1243" d="M860 1462v314h346v-633h-651v-1143h-397v1462h702z" />
<glyph unicode="&#x491;" horiz-adv-x="1112" d="M526 0h-391v1133h549v294h342v-585h-500v-842z" />
<glyph unicode="&#x492;" horiz-adv-x="1184" d="M20 883h179v579h934v-319h-537v-260h358v-320h-358v-563h-397v563h-179v320z" />
<glyph unicode="&#x493;" horiz-adv-x="1026" d="M20 674h146v459h811v-291h-420v-168h281v-291h-281v-383h-391v383h-146v291z" />
<glyph unicode="&#x494;" horiz-adv-x="1528" d="M555 0h-397v1462h975v-319h-578v-357q133 43 287 43q182 0 320.5 -75.5t215 -220t76.5 -345.5q0 -207 -72.5 -353t-206 -220t-319.5 -74q-71 0 -151 10t-130 25v324q100 -35 207 -35q129 0 198 84.5t69 243.5q0 313 -281 313q-124 0 -213 -31v-475z" />
<glyph unicode="&#x495;" horiz-adv-x="1325" d="M1237 102q0 -270 -138 -415.5t-392 -145.5q-141 0 -263 47v287q74 -43 187 -43q108 0 158.5 63t50.5 197q0 111 -53.5 175.5t-165.5 64.5q-56 0 -95 -17v-315h-391v1133h883v-291h-492v-238q87 19 156 19q169 0 295.5 -65t193 -183.5t66.5 -272.5z" />
<glyph unicode="&#x496;" horiz-adv-x="2279" d="M455 764l-426 698h426l405 -708v708h381v-708l408 708h426l-430 -698l268 -440h330v-779h-385v455h-185l-432 741v-741h-381v741l-432 -741h-436z" />
<glyph unicode="&#x497;" horiz-adv-x="2101" d="M803 584v549h381v-549l352 549h420l-383 -539l215 -303h289v-707h-342v416h-166l-385 575v-575h-381v575l-385 -575h-426l422 594l-383 539h420z" />
<glyph unicode="&#x498;" horiz-adv-x="1364" d="M1212 1120q0 -289 -344 -348v-8q198 -17 299 -106t101 -240q0 -132 -73.5 -231.5t-212.5 -153t-329 -53.5q-349 0 -557 79v340q85 -43 216.5 -69.5t238.5 -26.5q169 0 240 35t71 117q0 147 -336 147h-172v320h154q116 0 181.5 11.5t95.5 37.5t30 78q0 110 -211 110 q-199 0 -350 -102l-166 272q131 84 266 119t326 35q241 0 386.5 -100t145.5 -263zM663 -199q0 41 -26.5 82t-106.5 117h213q94 -66 134 -128.5t40 -131.5q0 -105 -78 -168.5t-198 -63.5q-91 0 -174 27v221q20 -9 55.5 -15.5t63.5 -6.5q77 0 77 67z" />
<glyph unicode="&#x499;" horiz-adv-x="1135" d="M436 715q117 0 168 20t51 64q0 75 -149 75q-145 0 -303 -71l-111 264q121 50 219.5 68t210.5 18q243 0 372.5 -79.5t129.5 -227.5q0 -91 -55.5 -157.5t-149.5 -90.5v-10q120 -16 186 -85t66 -181q0 -342 -567 -342q-125 0 -222.5 16t-209.5 63v299q193 -88 409 -88 q93 0 146 24t53 73q0 54 -47.5 74t-171.5 20h-148v254h123zM552 -199q0 41 -26.5 82t-106.5 117h213q94 -66 134 -128.5t40 -131.5q0 -105 -78 -168.5t-198 -63.5q-91 0 -174 27v221q20 -9 55.5 -15.5t63.5 -6.5q77 0 77 67z" />
<glyph unicode="&#x49a;" horiz-adv-x="1599" d="M1233 324h330v-779h-385v455h-189l-434 741v-741h-397v1462h397v-708l418 708h434l-451 -698z" />
<glyph unicode="&#x49b;" horiz-adv-x="1481" d="M928 1133h432l-424 -543l231 -299h289v-707h-342v416h-168l-420 575v-575h-391v1133h391v-549z" />
<glyph unicode="&#x49c;" horiz-adv-x="1530" d="M1538 0h-457l-254 356v-233h-159v438l-113 -72v-489h-397v1462h397v-708l113 155v475h159v-251l238 329h444l-542 -698z" />
<glyph unicode="&#x49d;" horiz-adv-x="1466" d="M618 690v344h152v-168l229 267h443l-486 -543l519 -590h-457l-248 291v-193h-152v369l-92 108v-575h-391v1133h391v-549z" />
<glyph unicode="&#x49e;" horiz-adv-x="1407" d="M1407 0h-446l-289 559l-117 -70v-489h-397v1063h-144v256h144v143h397v-143h143v-256h-143v-236q30 59 121 187l307 448h432l-461 -655z" />
<glyph unicode="&#x49f;" horiz-adv-x="1405" d="M156 1556h391v-147h233v-242h-233v-583l401 549h432l-424 -543l457 -590h-446l-420 575v-575h-391v1167h-156v242h156v147z" />
<glyph unicode="&#x4a0;" horiz-adv-x="1626" d="M1626 0h-446l-289 559l-117 -70v-489h-397v1139h-326v323h723v-635q30 59 121 187l307 448h432l-460 -655z" />
<glyph unicode="&#x4a1;" horiz-adv-x="1657" d="M799 584l401 549h432l-424 -543l457 -590h-446l-420 575v-575h-391v842h-359v291h750v-549z" />
<glyph unicode="&#x4a2;" horiz-adv-x="1755" d="M1411 324h307v-779h-385v455h-319v596h-459v-596h-397v1462h397v-542h459v542h397v-1138z" />
<glyph unicode="&#x4a3;" horiz-adv-x="1505" d="M526 1133v-408h310v408h391v-842h254v-707h-342v416h-303v434h-310v-434h-391v1133h391z" />
<glyph unicode="&#x4a4;" horiz-adv-x="1788" d="M1411 0h-397v596h-459v-596h-397v1462h397v-542h459v542h723v-323h-326v-1139z" />
<glyph unicode="&#x4a5;" horiz-adv-x="1608" d="M1559 1133v-291h-332v-842h-391v434h-310v-434h-391v1133h391v-408h310v408h723z" />
<glyph unicode="&#x4a6;" horiz-adv-x="2298" d="M1356 786q127 43 276 43q176 0 310.5 -76t208 -220.5t73.5 -344.5q0 -206 -69.5 -351.5t-198.5 -220.5t-309 -75q-68 0 -145 10t-126 25v324q93 -35 195 -35q119 0 183.5 84.5t64.5 243.5q0 150 -67.5 231.5t-195.5 81.5q-117 0 -200 -31v-475h-398v1139h-403v-1139h-397 v1462h1198v-676z" />
<glyph unicode="&#x4a7;" horiz-adv-x="1989" d="M1190 0h-391v842h-273v-842h-391v1133h1055v-529q84 19 156 19q169 0 295.5 -65t193 -183.5t66.5 -272.5q0 -270 -138 -415.5t-393 -145.5q-142 0 -262 47v287q37 -22 88.5 -32.5t97.5 -10.5q108 0 158.5 63t50.5 197q0 111 -53.5 175.5t-165.5 64.5q-58 0 -94 -17v-315z " />
<glyph unicode="&#x4a8;" horiz-adv-x="1698" d="M1569 678q0 -125 -60.5 -243.5t-165.5 -203.5q18 -8 58 -12t63 -4q79 0 152 23v-297q-27 -11 -87 -18t-118 -7q-212 0 -364 111q-102 -47 -297 -47q-197 0 -343.5 87.5t-224.5 253t-78 390.5q0 379 157 576.5t460 197.5q75 0 160.5 -14t132.5 -33l-96 -305 q-88 28 -168 28q-115 0 -176.5 -115t-61.5 -323q0 -195 67.5 -307.5t182.5 -112.5q53 0 76 6q-49 59 -83 157.5t-34 192.5q0 210 108.5 323.5t311.5 113.5q204 0 316 -108.5t112 -309.5zM1231 668q0 141 -86 141q-37 0 -61.5 -37t-24.5 -113q0 -63 16 -120t55 -121 q101 95 101 250z" />
<glyph unicode="&#x4a9;" horiz-adv-x="1407" d="M1341 510q0 -86 -32.5 -169.5t-87.5 -143.5q73 0 137 24v-258q-82 -33 -195 -33q-173 0 -291 80q-108 -30 -264 -30q-245 0 -383.5 155t-138.5 432q0 282 144 434t409 152q131 0 240 -49l-93 -275q-31 14 -68.5 23.5t-62.5 9.5q-89 0 -133.5 -79t-44.5 -218 q0 -140 48 -218.5t134 -82.5h27q-26 46 -42.5 115t-16.5 129q0 160 95 251t263 91q164 0 260 -91t96 -249zM909 489q0 -42 18.5 -87.5t47.5 -79.5q39 22 61.5 69t22.5 105q0 42 -19 65t-53 23q-78 0 -78 -95z" />
<glyph unicode="&#x4aa;" horiz-adv-x="1329" d="M809 1159q-141 0 -220 -115.5t-79 -318.5q0 -422 321 -422q97 0 188 27t183 65v-334q-183 -81 -414 -81q-331 0 -507.5 192t-176.5 555q0 227 85.5 399t246 264.5t377.5 92.5q237 0 453 -103l-121 -311q-81 38 -162 64t-174 26zM743 -199q0 41 -26.5 82t-106.5 117h213 q94 -66 134 -128.5t40 -131.5q0 -105 -78 -168.5t-198 -63.5q-91 0 -174 27v221q20 -9 55.5 -15.5t63.5 -6.5q77 0 77 67z" />
<glyph unicode="&#x4ab;" horiz-adv-x="1104" d="M651 -20q-278 0 -421.5 150t-143.5 431q0 282 155 437t441 155q197 0 371 -86l-115 -289q-71 31 -131 49.5t-125 18.5q-95 0 -147 -74t-52 -209q0 -272 201 -272q172 0 330 100v-311q-151 -100 -363 -100zM616 -199q0 41 -26.5 82t-106.5 117h213q94 -66 134 -128.5 t40 -131.5q0 -105 -78 -168.5t-198 -63.5q-91 0 -174 27v221q20 -9 55.5 -15.5t63.5 -6.5q77 0 77 67z" />
<glyph unicode="&#x4ac;" horiz-adv-x="1210" d="M803 324h287v-779h-385v455h-297v1139h-357v323h1108v-323h-356v-815z" />
<glyph unicode="&#x4ad;" horiz-adv-x="1235" d="M1186 842h-373v-551h234v-707h-342v416h-283v842h-373v291h1137v-291z" />
<glyph unicode="&#x4ae;" horiz-adv-x="1360" d="M680 920l252 542h428l-481 -891v-571h-398v559l-481 903h430z" />
<glyph unicode="&#x4af;" horiz-adv-x="1251" d="M430 4l-430 1129h408l192 -670q1 -5 4 -17t6 -28.5t5.5 -35t2.5 -34.5h9q0 59 16 113l201 672h407l-430 -1129v-496h-391v496z" />
<glyph unicode="&#x4b0;" horiz-adv-x="1360" d="M680 920l252 542h428l-481 -891v-30h327v-324h-327v-217h-398v217h-327v324h327v18l-481 903h430z" />
<glyph unicode="&#x4b1;" horiz-adv-x="1251" d="M119 0h311v35l-430 1098h408l192 -650q1 -5 4 -17t6 -28.5t5.5 -34.5t2.5 -34h9q0 58 16 112l201 652h407l-430 -1098v-35h312v-291h-312v-201h-391v201h-311v291z" />
<glyph unicode="&#x4b2;" horiz-adv-x="1628" d="M1249 324h342v-779h-385v455h-188l-285 457l-282 -457h-447l485 748l-456 714h438l264 -452l254 452h451l-463 -745z" />
<glyph unicode="&#x4b3;" horiz-adv-x="1407" d="M375 578l-346 555h444l172 -318l176 318h445l-355 -555l183 -287h288v-707h-342v416h-204l-191 344l-190 -344h-445z" />
<glyph unicode="&#x4b4;" horiz-adv-x="1929" d="M1188 324v1138h397v-1138h307v-779h-385v455h-1136v1139h-320v323h1018v-323h-299v-815h418z" />
<glyph unicode="&#x4b5;" horiz-adv-x="1804" d="M1042 842h-290v-551h383v842h391v-842h254v-707h-342v416h-1078v842h-311v291h993v-291z" />
<glyph unicode="&#x4b6;" horiz-adv-x="1745" d="M1401 324h307v-779h-385v455h-319v541q-255 -88 -453 -88q-207 0 -323.5 102.5t-116.5 288.5v618h397v-487q0 -107 43 -153t137 -46q129 0 316 68v618h397v-1138z" />
<glyph unicode="&#x4b7;" horiz-adv-x="1518" d="M477 1133v-396q0 -119 109 -119q121 0 262 41v474h391v-861h254v-688h-342v416h-303v412q-180 -84 -359 -84q-195 0 -299 98.5t-104 288.5v418h391z" />
<glyph unicode="&#x4b8;" horiz-adv-x="1554" d="M831 793q80 18 168 51v618h398v-1462h-398v541q-70 -24 -168 -52v-346h-159v316q-65 -6 -125 -6q-208 0 -324.5 102.5t-116.5 288.5v618h398v-487q0 -95 37 -145.5t131 -53.5v322h159v-305z" />
<glyph unicode="&#x4b9;" horiz-adv-x="1419" d="M762 635q77 14 131 33v465h391v-1133h-391v412q-68 -29 -131 -47v-238h-154v207q-52 -6 -102 -6q-214 0 -317 94.5t-103 292.5v418h391v-398q0 -65 29.5 -91t101.5 -26v209h154v-192z" />
<glyph unicode="&#x4ba;" horiz-adv-x="1554" d="M158 1462h397v-540q258 88 453 88q207 0 323.5 -102.5t116.5 -289.5v-618h-397v487q0 107 -43 153t-138 46q-134 0 -315 -68v-618h-397v1462z" />
<glyph unicode="&#x4bb;" horiz-adv-x="1374" d="M897 0v397q0 117 -106 117q-118 0 -265 -49v-465h-391v1133h391v-412q194 84 359 84q205 0 304 -94.5t99 -292.5v-418h-391z" />
<glyph unicode="&#x4bc;" horiz-adv-x="1948" d="M1149 -20q-203 0 -359 74t-250 218.5t-112 343.5h-152q-150 0 -229.5 67t-79.5 194q0 104 64 206h295q-29 -70 -29 -122q0 -35 18.5 -52.5t71.5 -17.5h47q42 291 228 441.5t493 150.5q338 0 518 -209t180 -596v-62h-1007q5 -147 97 -230t253 -83q297 0 557 172v-346 q-111 -70 -272.5 -109.5t-331.5 -39.5zM1143 1180q-119 0 -202 -78t-95 -211h598q-6 135 -87 212t-214 77z" />
<glyph unicode="&#x4bd;" horiz-adv-x="1507" d="M924 -20q-258 0 -411.5 124.5t-180.5 356.5h-68q-297 0 -297 223q0 104 51 195h246q-28 -65 -28 -111q0 -29 18.5 -45t71.5 -16h12q34 215 175 330.5t374 115.5q257 0 395.5 -133.5t138.5 -384.5v-174h-698q4 -94 67.5 -148.5t172.5 -54.5q205 0 385 86v-281 q-94 -48 -194 -65.5t-230 -17.5zM901 887q-163 0 -170 -180h336q-2 82 -46.5 131t-119.5 49z" />
<glyph unicode="&#x4be;" horiz-adv-x="1948" d="M952 -455v455q-230 49 -366 209t-158 407h-152q-150 0 -229.5 67t-79.5 194q0 104 64 206h295q-29 -70 -29 -122q0 -35 18.5 -52.5t71.5 -17.5h47q42 291 228 441.5t493 150.5q338 0 518 -209t180 -596v-62h-1007q5 -147 97 -230t253 -83q297 0 557 172v-346 q-161 -103 -416 -137v-447h-385zM1143 1180q-119 0 -202 -78t-95 -211h598q-6 135 -87 212t-214 77z" />
<glyph unicode="&#x4bf;" horiz-adv-x="1507" d="M1348 63q-121 -61 -277 -77v-402h-342v416q-173 43 -275 161.5t-122 299.5h-68q-297 0 -297 223q0 104 51 195h246q-28 -65 -28 -111q0 -29 18.5 -45t71.5 -16h12q34 215 175 330.5t374 115.5q257 0 395.5 -133.5t138.5 -384.5v-174h-698q4 -94 67.5 -148.5t172.5 -54.5 q205 0 385 86v-281zM901 887q-163 0 -170 -180h336q-2 82 -46.5 131t-119.5 49z" />
<glyph unicode="&#x4c0;" horiz-adv-x="713" d="M158 0v1462h397v-1462h-397z" />
<glyph unicode="&#x4c1;" horiz-adv-x="2101" d="M455 764l-426 698h426l405 -708v708h381v-708l408 708h426l-430 -698l464 -764h-436l-432 741v-741h-381v741l-432 -741h-436zM1039 1577q-239 0 -357.5 93t-132.5 288h326q5 -98 43 -142t121 -44q150 0 164 186h331q-41 -381 -495 -381z" />
<glyph unicode="&#x4c2;" horiz-adv-x="1987" d="M803 584v549h381v-549l352 549h420l-383 -539l422 -594h-426l-385 575v-575h-381v575l-385 -575h-426l422 594l-383 539h420zM981 1241q-239 0 -357.5 93t-132.5 288h326q5 -98 43 -142t121 -44q150 0 164 186h331q-41 -381 -495 -381z" />
<glyph unicode="&#x4c3;" horiz-adv-x="1610" d="M555 0h-397v1462h397v-667l438 667h434l-483 -649q179 -13 313.5 -92.5t206.5 -217.5t72 -323q0 -305 -161.5 -472t-436.5 -167q-154 0 -297 45v324q123 -45 221 -45q120 0 194 84t74 227q0 167 -85.5 253.5t-239.5 86.5q-147 0 -250 -33v-483z" />
<glyph unicode="&#x4c4;" horiz-adv-x="1479" d="M928 1133h432l-447 -519q148 -11 256 -79t165 -181.5t57 -251.5q0 -270 -138 -415.5t-393 -145.5q-142 0 -262 47v287q37 -22 88.5 -32.5t97.5 -10.5q108 0 158.5 63t50.5 197q0 112 -67.5 176t-192.5 64q-100 0 -207 -33v-299h-391v1133h391v-508z" />
<glyph unicode="&#x4c5;" horiz-adv-x="1735" d="M1403 324h315l-190 -779h-436l200 455h-286v1139h-279q-23 -249 -61.5 -507t-73.5 -362t-88.5 -165.5t-132.5 -93t-191 -31.5q-85 0 -155 22v305q60 -20 98 -20q52 0 79.5 43.5t50.5 148t64 388t76 595.5h1010v-1138z" />
<glyph unicode="&#x4c6;" horiz-adv-x="1542" d="M1272 272h258l-156 -688h-364l145 416h-274v842h-230q-33 -365 -83 -536.5t-138 -248.5t-237 -77q-104 0 -177 30v291q33 -18 88 -18q45 0 73 46.5t49.5 148.5t39 262t33.5 393h973v-861z" />
<glyph unicode="&#x4c7;" horiz-adv-x="1569" d="M1411 139q0 -289 -152.5 -443.5t-437.5 -154.5q-132 0 -256 45v324q104 -45 217 -45q111 0 171.5 70.5t60.5 201.5v459h-459v-596h-397v1462h397v-542h459v542h397v-1323z" />
<glyph unicode="&#x4c8;" horiz-adv-x="1362" d="M1227 82q0 -259 -139.5 -400t-389.5 -141q-140 0 -262 47v287q72 -43 187 -43q213 0 213 231v371h-310v-434h-391v1133h391v-408h310v408h391v-1051z" />
<glyph unicode="&#x4c9;" horiz-adv-x="1743" d="M1411 324h315l-190 -779h-436l200 455h-286v596h-459v-596h-397v1462h397v-542h459v542h397v-1138z" />
<glyph unicode="&#x4ca;" horiz-adv-x="1497" d="M526 1133v-408h310v408h391v-861h258l-156 -688h-364l145 416h-274v434h-310v-434h-391v1133h391z" />
<glyph unicode="&#x4cb;" horiz-adv-x="1554" d="M1077 -455h-385v779h307v217q-253 -88 -452 -88q-208 0 -324.5 102.5t-116.5 288.5v618h398v-487q0 -107 43 -153t137 -46q128 0 315 68v618h398v-1462h-320v-455z" />
<glyph unicode="&#x4cc;" horiz-adv-x="1374" d="M477 1133v-347q0 -116 107 -116q117 0 264 49v414h391v-1133h-303v-416h-342v688h254v191q-194 -84 -359 -84q-206 0 -304.5 94.5t-98.5 292.5v367h391z" />
<glyph unicode="&#x4cd;" horiz-adv-x="2154" d="M795 0l-299 1053h-9q21 -269 21 -418v-635h-350v1462h526l305 -1038h8l299 1038h527v-1138h315l-190 -779h-437l201 455h-252v641q0 50 1.5 111t13.5 299h-9l-295 -1051h-376z" />
<glyph unicode="&#x4ce;" horiz-adv-x="1976" d="M1706 272h258l-156 -688h-364l145 416h-254v866l-15 -65q-50 -209 -126 -422l-139 -379h-267l-143 383q-61 164 -120 408l-19 75v-866h-371v1133h555l103 -265q90 -234 129 -491q13 82 43 199t70.5 224.5t125.5 332.5h545v-861z" />
<glyph unicode="&#x4cf;" horiz-adv-x="713" d="M158 0v1462h397v-1462h-397z" />
<glyph unicode="&#x4d0;" horiz-adv-x="1487" d="M1055 0l-72 274h-475l-74 -274h-434l477 1468h527l483 -1468h-432zM901 598l-63 240q-22 80 -53.5 207t-41.5 182q-9 -51 -35.5 -168t-117.5 -461h311zM742 1579q-239 0 -357.5 93t-132.5 288h326q5 -98 43 -142t121 -44q150 0 164 186h331q-41 -381 -495 -381z" />
<glyph unicode="&#x4d1;" d="M874 0l-75 150h-8q-79 -98 -161 -134t-212 -36q-160 0 -252 96t-92 270q0 181 126 269.5t365 99.5l189 6v16q0 140 -138 140q-124 0 -315 -84l-113 258q198 102 500 102q218 0 337.5 -108t119.5 -302v-743h-271zM584 256q71 0 121.5 45t50.5 117v88l-90 -4 q-193 -7 -193 -142q0 -104 111 -104zM662 1241q-239 0 -357.5 93t-132.5 288h326q5 -98 43 -142t121 -44q150 0 164 186h331q-41 -381 -495 -381z" />
<glyph unicode="&#x4d2;" horiz-adv-x="1487" d="M1055 0l-72 274h-475l-74 -274h-434l477 1468h527l483 -1468h-432zM901 598l-63 240q-22 80 -53.5 207t-41.5 182q-9 -51 -35.5 -168t-117.5 -461h311zM348 1751q0 75 46 116.5t124 41.5q79 0 125.5 -42.5t46.5 -115.5q0 -71 -46.5 -113.5t-125.5 -42.5q-78 0 -124 41 t-46 115zM827 1751q0 75 46 116.5t126 41.5t126.5 -43t46.5 -115q0 -71 -46.5 -113.5t-126.5 -42.5q-81 0 -126.5 41.5t-45.5 114.5z" />
<glyph unicode="&#x4d3;" d="M874 0l-75 150h-8q-79 -98 -161 -134t-212 -36q-160 0 -252 96t-92 270q0 181 126 269.5t365 99.5l189 6v16q0 140 -138 140q-124 0 -315 -84l-113 258q198 102 500 102q218 0 337.5 -108t119.5 -302v-743h-271zM584 256q71 0 121.5 45t50.5 117v88l-90 -4 q-193 -7 -193 -142q0 -104 111 -104zM237 1413q0 75 46 116.5t124 41.5q79 0 125.5 -42.5t46.5 -115.5q0 -71 -46.5 -113.5t-125.5 -42.5q-78 0 -124 41t-46 115zM716 1413q0 75 46 116.5t126 41.5t126.5 -43t46.5 -115q0 -71 -46.5 -113.5t-126.5 -42.5q-81 0 -126.5 41.5 t-45.5 114.5z" />
<glyph unicode="&#x4d4;" horiz-adv-x="1937" d="M1839 0h-870v274h-437l-100 -274h-442l628 1462h1221v-317h-473v-230h438v-317h-438v-276h473v-322zM653 602h316v526h-111z" />
<glyph unicode="&#x4d5;" horiz-adv-x="1915" d="M1341 -20q-280 0 -430 190q-80 -83 -141.5 -120.5t-138.5 -53.5t-197 -16q-162 0 -261 101.5t-99 270.5q0 345 497 363l183 6v18q0 138 -136 138q-138 0 -313 -80l-110 256q190 100 454 100q201 0 336 -94q70 49 153 71.5t199 22.5q229 0 360.5 -136.5t131.5 -383.5v-172 h-696q4 -90 74 -146.5t186 -56.5q194 0 364 86v-281q-94 -48 -191 -65.5t-225 -17.5zM756 506l-84 -4q-106 -4 -152.5 -38.5t-46.5 -107.5q0 -100 113 -100q69 0 119.5 45t50.5 117v88zM1315 887q-162 0 -176 -180h340q-2 82 -48 131t-116 49z" />
<glyph unicode="&#x4d6;" horiz-adv-x="1124" d="M1026 0h-868v1462h868v-317h-473v-230h438v-317h-438v-276h473v-322zM585 1579q-239 0 -357.5 93t-132.5 288h326q5 -98 43 -142t121 -44q150 0 164 186h331q-41 -381 -495 -381z" />
<glyph unicode="&#x4d7;" horiz-adv-x="1266" d="M682 -20q-283 0 -439.5 150.5t-156.5 428.5q0 287 145 440.5t414 153.5q256 0 395.5 -133.5t139.5 -384.5v-174h-699q4 -95 69.5 -149t178.5 -54q103 0 189.5 19.5t187.5 66.5v-281q-92 -47 -190 -65t-234 -18zM659 887q-69 0 -115.5 -43.5t-54.5 -136.5h336 q-2 82 -46.5 131t-119.5 49zM652 1241q-239 0 -357.5 93t-132.5 288h326q5 -98 43 -142t121 -44q150 0 164 186h331q-41 -381 -495 -381z" />
<glyph unicode="&#x4d8;" horiz-adv-x="1624" d="M799 1483q219 0 384 -88t253 -255.5t88 -398.5q0 -369 -188 -565t-543 -196q-346 0 -522.5 203t-176.5 601v62h1008q-10 154 -102.5 233.5t-247.5 79.5q-297 0 -557 -172v346q112 70 275 110t329 40zM805 283q123 0 204.5 80.5t92.5 207.5h-598q8 -129 90.5 -208.5 t210.5 -79.5z" />
<glyph unicode="&#x4d9;" horiz-adv-x="1266" d="M584 1153q283 0 439.5 -151t156.5 -429q0 -287 -144 -440t-415 -153q-256 0 -395.5 133.5t-139.5 384.5v174h698q-4 94 -67.5 148t-171.5 54q-205 0 -385 -86v281q85 45 182.5 64.5t241.5 19.5zM606 246q163 0 170 180h-336q2 -82 47 -131t119 -49z" />
<glyph unicode="&#x4da;" horiz-adv-x="1624" d="M799 1483q219 0 384 -88t253 -255.5t88 -398.5q0 -369 -188 -565t-543 -196q-346 0 -522.5 203t-176.5 601v62h1008q-10 154 -102.5 233.5t-247.5 79.5q-297 0 -557 -172v346q112 70 275 110t329 40zM805 283q123 0 204.5 80.5t92.5 207.5h-598q8 -129 90.5 -208.5 t210.5 -79.5zM411 1751q0 75 46 116.5t124 41.5q79 0 125.5 -42.5t46.5 -115.5q0 -71 -46.5 -113.5t-125.5 -42.5q-78 0 -124 41t-46 115zM890 1751q0 75 46 116.5t126 41.5t126.5 -43t46.5 -115q0 -71 -46.5 -113.5t-126.5 -42.5q-81 0 -126.5 41.5t-45.5 114.5z" />
<glyph unicode="&#x4db;" horiz-adv-x="1266" d="M584 1153q283 0 439.5 -151t156.5 -429q0 -287 -144 -440t-415 -153q-256 0 -395.5 133.5t-139.5 384.5v174h698q-4 94 -67.5 148t-171.5 54q-205 0 -385 -86v281q85 45 182.5 64.5t241.5 19.5zM606 246q163 0 170 180h-336q2 -82 47 -131t119 -49zM193 1413 q0 75 46 116.5t124 41.5q79 0 125.5 -42.5t46.5 -115.5q0 -71 -46.5 -113.5t-125.5 -42.5q-78 0 -124 41t-46 115zM672 1413q0 75 46 116.5t126 41.5t126.5 -43t46.5 -115q0 -71 -46.5 -113.5t-126.5 -42.5q-81 0 -126.5 41.5t-45.5 114.5z" />
<glyph unicode="&#x4dc;" horiz-adv-x="2101" d="M455 764l-426 698h426l405 -708v708h381v-708l408 708h426l-430 -698l464 -764h-436l-432 741v-741h-381v741l-432 -741h-436zM635 1751q0 75 46 116.5t124 41.5q79 0 125.5 -42.5t46.5 -115.5q0 -71 -46.5 -113.5t-125.5 -42.5q-78 0 -124 41t-46 115zM1114 1751 q0 75 46 116.5t126 41.5t126.5 -43t46.5 -115q0 -71 -46.5 -113.5t-126.5 -42.5q-81 0 -126.5 41.5t-45.5 114.5z" />
<glyph unicode="&#x4dd;" horiz-adv-x="1987" d="M803 584v549h381v-549l352 549h420l-383 -539l422 -594h-426l-385 575v-575h-381v575l-385 -575h-426l422 594l-383 539h420zM573 1413q0 75 46 116.5t124 41.5q79 0 125.5 -42.5t46.5 -115.5q0 -71 -46.5 -113.5t-125.5 -42.5q-78 0 -124 41t-46 115zM1052 1413 q0 75 46 116.5t126 41.5t126.5 -43t46.5 -115q0 -71 -46.5 -113.5t-126.5 -42.5q-81 0 -126.5 41.5t-45.5 114.5z" />
<glyph unicode="&#x4de;" horiz-adv-x="1364" d="M1212 1120q0 -289 -344 -348v-8q198 -17 299 -106t101 -240q0 -132 -73.5 -231.5t-212.5 -153t-329 -53.5q-349 0 -557 79v340q85 -43 216.5 -69.5t238.5 -26.5q169 0 240 35t71 117q0 147 -336 147h-172v320h154q116 0 181.5 11.5t95.5 37.5t30 78q0 110 -211 110 q-199 0 -350 -102l-166 272q131 84 266 119t326 35q241 0 386.5 -100t145.5 -263zM248 1751q0 75 46 116.5t124 41.5q79 0 125.5 -42.5t46.5 -115.5q0 -71 -46.5 -113.5t-125.5 -42.5q-78 0 -124 41t-46 115zM727 1751q0 75 46 116.5t126 41.5t126.5 -43t46.5 -115 q0 -71 -46.5 -113.5t-126.5 -42.5q-81 0 -126.5 41.5t-45.5 114.5z" />
<glyph unicode="&#x4df;" horiz-adv-x="1135" d="M436 715q117 0 168 20t51 64q0 75 -149 75q-145 0 -303 -71l-111 264q121 50 219.5 68t210.5 18q243 0 372.5 -79.5t129.5 -227.5q0 -91 -55.5 -157.5t-149.5 -90.5v-10q120 -16 186 -85t66 -181q0 -342 -567 -342q-125 0 -222.5 16t-209.5 63v299q193 -88 409 -88 q93 0 146 24t53 73q0 54 -47.5 74t-171.5 20h-148v254h123zM142 1413q0 75 46 116.5t124 41.5q79 0 125.5 -42.5t46.5 -115.5q0 -71 -46.5 -113.5t-125.5 -42.5q-78 0 -124 41t-46 115zM621 1413q0 75 46 116.5t126 41.5t126.5 -43t46.5 -115q0 -71 -46.5 -113.5 t-126.5 -42.5q-81 0 -126.5 41.5t-45.5 114.5z" />
<glyph unicode="&#x4e0;" horiz-adv-x="1298" d="M291 866l307 273h-469v323h991v-243l-403 -355q225 -12 356 -123t131 -292q0 -224 -171 -346.5t-490 -122.5q-255 0 -469 79v340q99 -45 219 -70.5t219 -25.5q142 0 214.5 37.5t72.5 120.5q0 77 -100 109t-296 32h-112v264z" />
<glyph unicode="&#x4e1;" horiz-adv-x="1243" d="M260 537l342 297h-520v299h1044v-242l-417 -359q223 -31 339.5 -160t116.5 -341q0 -256 -170.5 -389.5t-486.5 -133.5q-287 0 -488 78v336q97 -47 220 -74.5t243 -27.5q137 0 211 57.5t74 169.5q0 121 -89.5 170t-283.5 49h-135v271z" />
<glyph unicode="&#x4e2;" horiz-adv-x="1731" d="M158 1462h352v-628q0 -100 -16 -400h8l583 1028h488v-1462h-350v612q0 139 18 416h-8l-588 -1028h-487v1462zM498 1815h727v-236h-727v236z" />
<glyph unicode="&#x4e3;" horiz-adv-x="1489" d="M483 1133v-285q0 -24 -0.5 -52t-13.5 -356l453 693h432v-1133h-348v307q0 161 14 381l-451 -688h-434v1133h348zM396 1477h727v-236h-727v236z" />
<glyph unicode="&#x4e4;" horiz-adv-x="1731" d="M158 1462h352v-628q0 -100 -16 -400h8l583 1028h488v-1462h-350v612q0 139 18 416h-8l-588 -1028h-487v1462zM471 1751q0 75 46 116.5t124 41.5q79 0 125.5 -42.5t46.5 -115.5q0 -71 -46.5 -113.5t-125.5 -42.5q-78 0 -124 41t-46 115zM950 1751q0 75 46 116.5t126 41.5 t126.5 -43t46.5 -115q0 -71 -46.5 -113.5t-126.5 -42.5q-81 0 -126.5 41.5t-45.5 114.5z" />
<glyph unicode="&#x4e5;" horiz-adv-x="1489" d="M483 1133v-285q0 -24 -0.5 -52t-13.5 -356l453 693h432v-1133h-348v307q0 161 14 381l-451 -688h-434v1133h348zM364 1413q0 75 46 116.5t124 41.5q79 0 125.5 -42.5t46.5 -115.5q0 -71 -46.5 -113.5t-125.5 -42.5q-78 0 -124 41t-46 115zM843 1413q0 75 46 116.5 t126 41.5t126.5 -43t46.5 -115q0 -71 -46.5 -113.5t-126.5 -42.5q-81 0 -126.5 41.5t-45.5 114.5z" />
<glyph unicode="&#x4e6;" horiz-adv-x="1632" d="M1526 733q0 -369 -181 -561t-530 -192q-344 0 -527.5 193t-183.5 562q0 365 182.5 557.5t530.5 192.5q349 0 529 -191t180 -561zM520 733q0 -424 295 -424q150 0 222.5 103t72.5 321q0 219 -73.5 323.5t-219.5 104.5q-297 0 -297 -428zM403 1751q0 75 46 116.5t124 41.5 q79 0 125.5 -42.5t46.5 -115.5q0 -71 -46.5 -113.5t-125.5 -42.5q-78 0 -124 41t-46 115zM882 1751q0 75 46 116.5t126 41.5t126.5 -43t46.5 -115q0 -71 -46.5 -113.5t-126.5 -42.5q-81 0 -126.5 41.5t-45.5 114.5z" />
<glyph unicode="&#x4e7;" horiz-adv-x="1305" d="M1217 569q0 -278 -149.5 -433.5t-418.5 -155.5q-258 0 -410.5 159t-152.5 430q0 277 149.5 430.5t419.5 153.5q167 0 295 -71t197.5 -203.5t69.5 -309.5zM483 569q0 -146 39 -222.5t131 -76.5q91 0 128.5 76.5t37.5 222.5q0 145 -38 219t-130 74q-90 0 -129 -73.5 t-39 -219.5zM239 1413q0 75 46 116.5t124 41.5q79 0 125.5 -42.5t46.5 -115.5q0 -71 -46.5 -113.5t-125.5 -42.5q-78 0 -124 41t-46 115zM718 1413q0 75 46 116.5t126 41.5t126.5 -43t46.5 -115q0 -71 -46.5 -113.5t-126.5 -42.5q-81 0 -126.5 41.5t-45.5 114.5z" />
<glyph unicode="&#x4e8;" horiz-adv-x="1632" d="M1526 733q0 -369 -181 -561t-530 -192q-344 0 -527.5 193t-183.5 562q0 365 182.5 557.5t530.5 192.5q349 0 529 -191t180 -561zM815 289q290 0 328 319h-656q42 -319 328 -319zM817 1182q-267 0 -323 -283h643q-51 283 -320 283z" />
<glyph unicode="&#x4e9;" horiz-adv-x="1305" d="M1217 569q0 -278 -149.5 -433.5t-418.5 -155.5q-258 0 -410.5 159t-152.5 430q0 277 149.5 430.5t419.5 153.5q167 0 295 -71t197.5 -203.5t69.5 -309.5zM651 879q-166 0 -190 -207h383q-14 101 -59 154t-134 53zM653 254q85 0 130 50t59 147h-381q15 -97 60.5 -147 t131.5 -50z" />
<glyph unicode="&#x4ea;" horiz-adv-x="1632" d="M1526 733q0 -369 -181 -561t-530 -192q-344 0 -527.5 193t-183.5 562q0 365 182.5 557.5t530.5 192.5q349 0 529 -191t180 -561zM815 289q290 0 328 319h-656q42 -319 328 -319zM817 1182q-267 0 -323 -283h643q-51 283 -320 283zM403 1751q0 75 46 116.5t124 41.5 q79 0 125.5 -42.5t46.5 -115.5q0 -71 -46.5 -113.5t-125.5 -42.5q-78 0 -124 41t-46 115zM882 1751q0 75 46 116.5t126 41.5t126.5 -43t46.5 -115q0 -71 -46.5 -113.5t-126.5 -42.5q-81 0 -126.5 41.5t-45.5 114.5z" />
<glyph unicode="&#x4eb;" horiz-adv-x="1305" d="M1217 569q0 -278 -149.5 -433.5t-418.5 -155.5q-258 0 -410.5 159t-152.5 430q0 277 149.5 430.5t419.5 153.5q167 0 295 -71t197.5 -203.5t69.5 -309.5zM651 879q-166 0 -190 -207h383q-14 101 -59 154t-134 53zM653 254q85 0 130 50t59 147h-381q15 -97 60.5 -147 t131.5 -50zM239 1413q0 75 46 116.5t124 41.5q79 0 125.5 -42.5t46.5 -115.5q0 -71 -46.5 -113.5t-125.5 -42.5q-78 0 -124 41t-46 115zM718 1413q0 75 46 116.5t126 41.5t126.5 -43t46.5 -115q0 -71 -46.5 -113.5t-126.5 -42.5q-81 0 -126.5 41.5t-45.5 114.5z" />
<glyph unicode="&#x4ec;" horiz-adv-x="1372" d="M553 1157q-72 0 -173 -25t-183 -65l-115 309q136 59 251 82t234 23q334 0 516.5 -194.5t182.5 -551.5q0 -369 -181.5 -562t-529.5 -193q-259 0 -463 83v332q238 -92 463 -92q134 0 209 66t84 192h-584v318h584q-9 134 -86.5 206t-208.5 72zM227 1751q0 75 46 116.5 t124 41.5q79 0 125.5 -42.5t46.5 -115.5q0 -71 -46.5 -113.5t-125.5 -42.5q-78 0 -124 41t-46 115zM706 1751q0 75 46 116.5t126 41.5t126.5 -43t46.5 -115q0 -71 -46.5 -113.5t-126.5 -42.5q-81 0 -126.5 41.5t-45.5 114.5z" />
<glyph unicode="&#x4ed;" horiz-adv-x="1108" d="M451 -20q-116 0 -208 17t-173 60v293q189 -92 333 -92q103 0 162 49t60 133h-387v246h387q-4 88 -56.5 138t-136.5 50q-60 0 -133.5 -17t-136.5 -48l-111 252q96 45 210 68.5t220 23.5q253 0 397 -147.5t144 -419.5q0 -294 -148 -450t-423 -156zM93 1413q0 75 46 116.5 t124 41.5q79 0 125.5 -42.5t46.5 -115.5q0 -71 -46.5 -113.5t-125.5 -42.5q-78 0 -124 41t-46 115zM572 1413q0 75 46 116.5t126 41.5t126.5 -43t46.5 -115q0 -71 -46.5 -113.5t-126.5 -42.5q-81 0 -126.5 41.5t-45.5 114.5z" />
<glyph unicode="&#x4ee;" horiz-adv-x="1395" d="M346 -20q-140 0 -256 30v314q94 -37 238 -37q62 0 104.5 28.5t69.5 100.5l-477 1046h426l180 -446q10 -26 24.5 -62t28.5 -74.5t26 -76.5t19 -66h14q34 136 101 318l149 407h426l-444 -1026q-83 -192 -163 -282.5t-191.5 -132t-274.5 -41.5zM363 1815h727v-236h-727v236z " />
<glyph unicode="&#x4ef;" horiz-adv-x="1249" d="M-2 1133h412l192 -650q14 -51 19 -123h8q8 69 24 121l197 652h399l-448 -1205q-86 -230 -211.5 -325t-327.5 -95q-78 0 -160 17v307q53 -12 121 -12q52 0 91 20t68 56.5t62 119.5zM262 1477h727v-236h-727v236z" />
<glyph unicode="&#x4f0;" horiz-adv-x="1395" d="M346 -20q-140 0 -256 30v314q94 -37 238 -37q62 0 104.5 28.5t69.5 100.5l-477 1046h426l180 -446q10 -26 24.5 -62t28.5 -74.5t26 -76.5t19 -66h14q34 136 101 318l149 407h426l-444 -1026q-83 -192 -163 -282.5t-191.5 -132t-274.5 -41.5zM311 1751q0 75 46 116.5 t124 41.5q79 0 125.5 -42.5t46.5 -115.5q0 -71 -46.5 -113.5t-125.5 -42.5q-78 0 -124 41t-46 115zM790 1751q0 75 46 116.5t126 41.5t126.5 -43t46.5 -115q0 -71 -46.5 -113.5t-126.5 -42.5q-81 0 -126.5 41.5t-45.5 114.5z" />
<glyph unicode="&#x4f1;" horiz-adv-x="1249" d="M-2 1133h412l192 -650q14 -51 19 -123h8q8 69 24 121l197 652h399l-448 -1205q-86 -230 -211.5 -325t-327.5 -95q-78 0 -160 17v307q53 -12 121 -12q52 0 91 20t68 56.5t62 119.5zM216 1413q0 75 46 116.5t124 41.5q79 0 125.5 -42.5t46.5 -115.5q0 -71 -46.5 -113.5 t-125.5 -42.5q-78 0 -124 41t-46 115zM695 1413q0 75 46 116.5t126 41.5t126.5 -43t46.5 -115q0 -71 -46.5 -113.5t-126.5 -42.5q-81 0 -126.5 41.5t-45.5 114.5z" />
<glyph unicode="&#x4f2;" horiz-adv-x="1395" d="M346 -20q-140 0 -256 30v314q94 -37 238 -37q62 0 104.5 28.5t69.5 100.5l-477 1046h426l180 -446q10 -26 24.5 -62t28.5 -74.5t26 -76.5t19 -66h14q34 136 101 318l149 407h426l-444 -1026q-83 -192 -163 -282.5t-191.5 -132t-274.5 -41.5zM320 1579v29l49 67 q116 158 158 232h370v-21q-24 -39 -127.5 -123.5t-246.5 -183.5h-203zM783 1579v29l49 67q116 155 158 232h372v-21q-26 -43 -140.5 -134t-236.5 -173h-202z" />
<glyph unicode="&#x4f3;" horiz-adv-x="1249" d="M-2 1133h412l192 -650q14 -51 19 -123h8q8 69 24 121l197 652h399l-448 -1205q-86 -230 -211.5 -325t-327.5 -95q-78 0 -160 17v307q53 -12 121 -12q52 0 91 20t68 56.5t62 119.5zM219 1241v29l49 67q116 158 158 232h370v-21q-24 -39 -127.5 -123.5t-246.5 -183.5h-203z M682 1241v29l49 67q116 155 158 232h372v-21q-26 -43 -140.5 -134t-236.5 -173h-202z" />
<glyph unicode="&#x4f4;" horiz-adv-x="1554" d="M1397 0h-398v541q-253 -88 -452 -88q-208 0 -324.5 102.5t-116.5 288.5v618h398v-487q0 -107 43 -153t137 -46q128 0 315 68v618h398v-1462zM358 1751q0 75 46 116.5t124 41.5q79 0 125.5 -42.5t46.5 -115.5q0 -71 -46.5 -113.5t-125.5 -42.5q-78 0 -124 41t-46 115z M837 1751q0 75 46 116.5t126 41.5t126.5 -43t46.5 -115q0 -71 -46.5 -113.5t-126.5 -42.5q-81 0 -126.5 41.5t-45.5 114.5z" />
<glyph unicode="&#x4f5;" horiz-adv-x="1374" d="M477 1133v-398q0 -117 107 -117q114 0 264 50v465h391v-1133h-391v412q-194 -84 -359 -84q-206 0 -304.5 94.5t-98.5 292.5v418h391zM274 1413q0 75 46 116.5t124 41.5q79 0 125.5 -42.5t46.5 -115.5q0 -71 -46.5 -113.5t-125.5 -42.5q-78 0 -124 41t-46 115zM753 1413 q0 75 46 116.5t126 41.5t126.5 -43t46.5 -115q0 -71 -46.5 -113.5t-126.5 -42.5q-81 0 -126.5 41.5t-45.5 114.5z" />
<glyph unicode="&#x4f6;" horiz-adv-x="1184" d="M158 0v1462h975v-319h-578v-819h307v-779h-385v455h-319z" />
<glyph unicode="&#x4f7;" horiz-adv-x="1026" d="M977 1133v-291h-451v-551h254v-707h-342v416h-303v1133h842z" />
<glyph unicode="&#x4f8;" horiz-adv-x="1890" d="M1202 485q0 -234 -159.5 -359.5t-452.5 -125.5h-432v1462h397v-520h20q306 0 466.5 -115.5t160.5 -341.5zM555 305h16q232 0 232 172q0 166 -234 166h-14v-338zM1733 0h-398v1462h398v-1462zM536 1751q0 75 46 116.5t124 41.5q79 0 125.5 -42.5t46.5 -115.5 q0 -71 -46.5 -113.5t-125.5 -42.5q-78 0 -124 41t-46 115zM1015 1751q0 75 46 116.5t126 41.5t126.5 -43t46.5 -115q0 -71 -46.5 -113.5t-126.5 -42.5q-81 0 -126.5 41.5t-45.5 114.5z" />
<glyph unicode="&#x4f9;" horiz-adv-x="1774" d="M1638 0h-391v1133h391v-1133zM526 1133v-408h37q295 0 427 -82t132 -268q0 -195 -127 -285t-385 -90h-475v1133h391zM731 358q0 59 -33 85t-110 26h-62v-213h66q139 0 139 102zM475 1413q0 75 46 116.5t124 41.5q79 0 125.5 -42.5t46.5 -115.5q0 -71 -46.5 -113.5 t-125.5 -42.5q-78 0 -124 41t-46 115zM954 1413q0 75 46 116.5t126 41.5t126.5 -43t46.5 -115q0 -71 -46.5 -113.5t-126.5 -42.5q-81 0 -126.5 41.5t-45.5 114.5z" />
<glyph unicode="&#x4fa;" horiz-adv-x="1184" d="M20 883h179v579h934v-319h-537v-260h358v-320h-358v-563h-397v563h-179v320zM543 -559q-142 0 -226 24v304q63 -19 127 -19q74 0 108 53.5t34 159.5v373h387v-455q0 -205 -114 -322.5t-316 -117.5z" />
<glyph unicode="&#x4fb;" horiz-adv-x="1026" d="M20 674h146v459h811v-291h-420v-168h281v-291h-281v-383h-391v383h-146v291zM494 -559q-142 0 -226 24v304q63 -19 127 -19q74 0 108 53.5t34 159.5v309h387v-391q0 -205 -114 -322.5t-316 -117.5z" />
<glyph unicode="&#x4fc;" horiz-adv-x="1638" d="M1475 0h-457l-285 457l-282 -457h-447l485 748l-456 714h438l264 -452l254 452h451l-463 -745zM1174 -559q-142 0 -226 24v304q63 -19 127 -19q74 0 108 53.5t34 159.5v373h387v-455q0 -205 -114 -322.5t-316 -117.5z" />
<glyph unicode="&#x4fd;" horiz-adv-x="1473" d="M375 578l-346 555h444l172 -318l176 318h445l-355 -555l369 -578h-444l-191 344l-190 -344h-445zM1016 -559q-142 0 -226 24v304q63 -19 127 -19q74 0 108 53.5t34 159.5v309h387v-391q0 -205 -114 -322.5t-316 -117.5z" />
<glyph unicode="&#x4fe;" horiz-adv-x="1481" d="M1079 567l396 -567h-457l-285 457l-282 -457h-447l369 567h-269v318h297l-368 577h438l264 -452l254 452h451l-359 -577h287v-318h-289z" />
<glyph unicode="&#x4ff;" horiz-adv-x="1290" d="M295 420h-215v291h231l-282 422h444l172 -318l176 318h445l-291 -422h229v-291h-213l289 -420h-444l-191 344l-190 -344h-445z" />
<glyph unicode="&#x500;" d="M74 485q0 226 160.5 341.5t465.5 115.5h21v520h397v-1462h-432q-293 0 -452.5 125.5t-159.5 359.5zM721 639h-16q-234 0 -234 -164q0 -172 231 -172h19v336z" />
<glyph unicode="&#x501;" horiz-adv-x="1317" d="M487 -20q-121 0 -211.5 69t-140 203t-49.5 313q0 276 111 432t305 156q95 0 166.5 -38t130.5 -128h8q-19 133 -19 266v303h394v-1556h-295l-84 143h-15q-101 -163 -301 -163zM647 289q94 0 132.5 59t41.5 182v31q0 150 -43 213.5t-135 63.5q-77 0 -119.5 -72.5 t-42.5 -206.5q0 -132 43 -201t123 -69z" />
<glyph unicode="&#x502;" horiz-adv-x="1880" d="M1229 -20q-217 0 -348 116q-126 -116 -330 -116q-234 0 -355.5 123t-121.5 362q0 237 158.5 357t463.5 120h11v520h397v-989q0 -88 29 -128t96 -40q70 0 96.5 40.5t26.5 131.5v371h397v-389q0 -249 -124 -364t-396 -115zM707 639h-23q-211 0 -211 -190q0 -69 37.5 -107.5 t93.5 -38.5q60 0 81.5 24t21.5 79v233z" />
<glyph unicode="&#x503;" horiz-adv-x="1942" d="M1311 -16q-136 0 -224 33.5t-143 101.5q-74 -65 -164.5 -100t-212.5 -35q-229 0 -355 151.5t-126 429.5q0 276 111 432t305 156q95 0 166.5 -38t130.5 -128h8q-19 133 -19 266v303h394v-1140q0 -61 34.5 -97t94.5 -36q65 0 97 39.5t32 101.5v276h391v-280 q0 -135 -63.5 -236t-178.5 -150.5t-278 -49.5zM647 283q94 0 132.5 62.5t41.5 184.5v31q0 150 -43 213.5t-135 63.5q-77 0 -119.5 -72.5t-42.5 -206.5q0 -141 46 -208.5t120 -67.5z" />
<glyph unicode="&#x504;" horiz-adv-x="1903" d="M1251 305q70 0 96.5 40.5t26.5 131.5v371h398v-389q0 -249 -124 -364t-397 -115q-279 0 -404.5 107.5t-125.5 348.5q0 88 -71 127t-214 39h-205v320h189q137 0 195.5 30t58.5 97q0 110 -182 110q-79 0 -163 -29t-153 -83l-166 272q123 85 255 124.5t310 39.5 q224 0 360 -99.5t136 -263.5q0 -288 -344 -348v-8q190 -17 294.5 -101t104.5 -217q0 -84 27.5 -112.5t97.5 -28.5z" />
<glyph unicode="&#x505;" horiz-adv-x="1843" d="M799 588q128 -8 193.5 -59.5t76.5 -151.5q5 -40 41.5 -67t101.5 -27t97 39.5t32 101.5v276h392v-284q0 -136 -63.5 -236.5t-179 -150t-278.5 -49.5q-156 0 -268.5 36t-176.5 112.5t-75 188.5q-9 83 -64.5 113.5t-187.5 30.5h-147v254h123q117 0 168 20t51 64 q0 75 -150 75q-81 0 -152.5 -18t-150.5 -53l-110 264q121 50 219.5 68t210.5 18q243 0 372.5 -80t129.5 -227q0 -91 -55.5 -157.5t-149.5 -90.5v-10z" />
<glyph unicode="&#x506;" horiz-adv-x="1462" d="M1118 324h307v-779h-385v455h-319v403q0 108 -63.5 153.5t-221.5 45.5h-205v320h189q137 0 195.5 30t58.5 97q0 110 -182 110q-79 0 -163 -29t-153 -83l-166 272q123 85 255 124.5t310 39.5q224 0 360 -99.5t136 -263.5q0 -288 -344 -348v-8q188 -17 289.5 -99.5 t101.5 -218.5v-122z" />
<glyph unicode="&#x507;" horiz-adv-x="1348" d="M678 250q0 94 -20.5 135.5t-70.5 58.5t-147 17h-147v254h123q117 0 168 20t51 64q0 75 -150 75q-81 0 -152.5 -18t-150.5 -53l-110 264q121 50 219.5 68t210.5 18q243 0 372.5 -80t129.5 -227q0 -91 -55.5 -157.5t-149.5 -90.5v-10q137 -8 203.5 -69.5t66.5 -192.5v-54 h254v-688h-342v416h-303v250z" />
<glyph unicode="&#x508;" horiz-adv-x="2138" d="M1487 -20q-277 0 -399.5 106t-122.5 350v703h-238q-23 -249 -61.5 -507t-73.5 -362t-88.5 -165.5t-132.5 -93t-191 -31.5q-85 0 -155 22v305q60 -20 98 -20q52 0 79.5 43.5t50.5 148t64 388t76 595.5h969v-981q0 -106 26 -141t99 -35q70 0 96.5 40.5t26.5 131.5v371h397 v-389q0 -249 -124 -364t-396 -115z" />
<glyph unicode="&#x509;" horiz-adv-x="2007" d="M1376 -20q-160 0 -275.5 49t-180 149t-64.5 236v428h-205q-33 -365 -83 -536.5t-138 -248.5t-237 -77q-104 0 -177 30v291q33 -18 88 -18q45 0 73 46.5t49.5 148.5t39 262t33.5 393h948v-717q0 -61 34.5 -97t94.5 -36q65 0 97 39.5t32 101.5v276h391v-284 q0 -135 -59.5 -231.5t-174 -150.5t-286.5 -54z" />
<glyph unicode="&#x50a;" horiz-adv-x="2146" d="M1495 -20q-277 0 -399.5 106t-122.5 350v160h-418v-596h-397v1462h397v-542h418v542h397v-981q0 -106 26 -141t99 -35q70 0 96.5 40.5t26.5 131.5v371h397v-389q0 -251 -124 -365t-396 -114z" />
<glyph unicode="&#x50b;" horiz-adv-x="1987" d="M526 1133v-408h310v408h391v-717q0 -61 34.5 -97t94.5 -36q65 0 97 39.5t32 101.5v276h391v-280q0 -135 -63.5 -236t-178.5 -150.5t-278 -49.5q-160 0 -275.5 49t-180 149t-64.5 236v16h-310v-434h-391v1133h391z" />
<glyph unicode="&#x50c;" horiz-adv-x="1616" d="M844 305q276 0 276 246h-334v305h732v-186q0 -325 -178 -507.5t-490 -182.5q-361 0 -553.5 193t-192.5 562q0 354 202 551t566 197q138 0 260.5 -28t213.5 -75l-125 -309q-162 88 -347 88q-173 0 -267.5 -112.5t-94.5 -321.5q0 -205 85.5 -312.5t246.5 -107.5z" />
<glyph unicode="&#x50d;" horiz-adv-x="1352" d="M1270 692v-123q0 -282 -147.5 -435.5t-422.5 -153.5q-292 0 -453 154.5t-161 438.5q0 279 170.5 429.5t478.5 150.5q244 0 402 -82l-101 -274q-46 26 -125.5 45.5t-160.5 19.5q-267 0 -267 -301q0 -156 54.5 -227.5t167.5 -71.5q81 0 125.5 42.5t50.5 121.5h-217v266h606 z" />
<glyph unicode="&#x50e;" horiz-adv-x="1581" d="M805 481q0 -106 26 -141t99 -35q70 0 96.5 40.5t26.5 131.5v371h397v-389q0 -249 -124 -364t-396 -115q-277 0 -399.5 106t-122.5 350v703h-357v323h1108v-323h-354v-658z" />
<glyph unicode="&#x50f;" horiz-adv-x="1573" d="M813 416q0 -61 34.5 -97t94.5 -36q65 0 97 39.5t32 101.5v276h391v-284q0 -135 -59.5 -231.5t-174 -150.5t-286.5 -54q-160 0 -275.5 49t-180 149t-64.5 236v428h-373v291h1137v-291h-373v-426z" />
<glyph unicode="&#x510;" horiz-adv-x="1364" d="M164 1120q0 162 145.5 262.5t386.5 100.5q193 0 326.5 -35t265.5 -119l-166 -272q-151 102 -350 102q-211 0 -211 -110q0 -55 28 -80t90.5 -36t176.5 -11h154v-320h-172q-336 0 -336 -147q0 -82 71 -117t240 -35q109 0 240 26.5t215 69.5v-340q-208 -79 -557 -79 q-189 0 -328 53.5t-213 153t-74 231.5q0 150 100.5 239t299.5 107v8q-332 58 -332 348z" />
<glyph unicode="&#x511;" horiz-adv-x="1135" d="M842 715v-254h-148q-90 0 -141 -9t-74.5 -27.5t-23.5 -57.5q0 -97 207 -97q209 0 401 88v-299q-109 -46 -217 -62.5t-242 -16.5q-277 0 -409 83t-132 259q0 104 73.5 177t199.5 89v10q-94 25 -149.5 91t-55.5 157q0 148 129 227.5t373 79.5q111 0 208.5 -18t221.5 -68 l-111 -264q-158 71 -303 71q-149 0 -149 -75q0 -45 51 -64.5t168 -19.5h123z" />
<glyph unicode="&#x512;" horiz-adv-x="1825" d="M1403 0h-397v1139h-279q-23 -249 -61.5 -507t-73.5 -362t-88.5 -165.5t-132.5 -93t-191 -31.5q-85 0 -155 22v305q60 -20 98 -20q52 0 79.5 43.5t50.5 148t64 388t76 595.5h1010v-1462zM1358 -559q-142 0 -226 24v304q63 -19 127 -19q74 0 108 53.5t34 159.5v373h387 v-455q0 -205 -114 -322.5t-316 -117.5z" />
<glyph unicode="&#x513;" horiz-adv-x="1677" d="M1272 0h-391v842h-230q-33 -365 -83 -536.5t-138 -248.5t-237 -77q-104 0 -177 30v291q33 -18 88 -18q45 0 73 46.5t49.5 148.5t39 262t33.5 393h973v-1133zM1223 -559q-142 0 -226 24v304q63 -19 127 -19q74 0 108 53.5t34 159.5v309h387v-391q0 -205 -114 -322.5 t-316 -117.5z" />
</font>
</defs>
</svg>
